<?xml version="1.0" standalone="no"?>
<!DOCTYPE svg PUBLIC "-//W3C//DTD SVG 1.1//EN" "http://www.w3.org/Graphics/SVG/1.1/DTD/svg11.dtd" >
<svg xmlns="http://www.w3.org/2000/svg">
<metadata>Generated by IcoMoon</metadata>
<defs>
<font id="icomoon" horiz-adv-x="1024">
<font-face units-per-em="1024" ascent="960" descent="-64" />
<missing-glyph horiz-adv-x="1024" />
<glyph unicode="&#x20;" horiz-adv-x="512" d="" />
<glyph unicode="&#xe900;" glyph-name="right" d="M512 149.333c-0.074 0-0.161-0.001-0.248-0.001-23.564 0-42.667 19.103-42.667 42.667 0 11.844 4.826 22.561 12.619 30.291l0.003 0.003 226.133 225.707-226.133 225.707c-6.377 7.412-10.259 17.129-10.259 27.753 0 23.564 19.103 42.667 42.667 42.667 10.624 0 20.341-3.883 27.809-10.307l-0.056 0.047 256-256c7.668-7.712 12.407-18.343 12.407-30.080s-4.74-22.368-12.409-30.082l-255.998-255.998c-7.667-7.606-18.211-12.323-29.857-12.373h-0.010zM256 149.333c-0.074 0-0.161-0.001-0.248-0.001-23.564 0-42.667 19.103-42.667 42.667 0 11.844 4.826 22.561 12.619 30.291l0.003 0.003 226.133 225.707-226.133 225.707c-7.753 7.753-12.548 18.463-12.548 30.293 0 23.661 19.181 42.841 42.841 42.841 11.83 0 22.541-4.795 30.293-12.548l256-256c7.668-7.712 12.407-18.343 12.407-30.080s-4.74-22.368-12.409-30.082l-255.998-255.998c-7.709-7.861-18.426-12.749-30.284-12.8h-0.010z" />
<glyph unicode="&#xe901;" glyph-name="search" d="M950.624 54.624l-232.288 232.296c50.928 61.064 81.664 139.528 81.664 225.080 0 194.096-157.904 352-352 352s-352-157.904-352-352 157.904-352 352-352c85.552 0 164.016 30.736 225.080 81.664l232.296-232.296c6.248-6.248 14.44-9.376 22.624-9.376s16.376 3.128 22.624 9.376c12.504 12.504 12.504 32.76 0 45.256zM160 512c0 158.8 129.184 288 288 288s288-129.2 288-288-129.184-288-288-288-288 129.2-288 288z" />
<glyph unicode="&#xe902;" glyph-name="up-right-arrow" d="M288 896c-17.673 0-32-14.327-32-32v0c0-17.673 14.327-32 32-32v0h562.752l-777.376-777.376c-12.493-12.496-12.493-32.755 0-45.251 12.496-12.493 32.755-12.493 45.251 0l777.376 777.376v-562.752c0-17.673 14.327-32 32-32v0c17.673 0 32 14.327 32 32v0 640c-0.002 17.672-14.328 31.998-32 32h-640z" />
<glyph unicode="&#xe903;" glyph-name="add" d="M621.714 539.429c-10.098 0-18.286 8.187-18.286 18.286v402.286h-182.857v-402.286c0-10.098-8.187-18.286-18.286-18.286h-402.286v-182.857h402.286c10.098 0 18.286-8.187 18.286-18.286v-402.286h182.857v402.286c0 10.098 8.187 18.286 18.286 18.286h402.286v182.857z" />
<glyph unicode="&#xe904;" glyph-name="check" d="M512.256 31.952c-158.208-0.016-304.096 90.64-373.968 233.328-70.704 144.432-49.296 324.56 53.296 448.224 102.48 123.536 269.088 177.44 424.416 137.328 17.104-4.416 27.392-21.872 22.992-38.992-4.416-17.12-21.888-27.392-38.992-22.992-131.392 33.936-272.416-11.664-359.152-116.224-86.784-104.624-104.896-257.024-45.072-379.232 59.6-121.728 191.072-201.024 326.016-197.344 134.928 3.68 257.376 85.744 311.952 209.056 32.048 72.416 38.832 154.416 19.072 230.912-4.416 17.104 5.872 34.56 22.992 38.992 17.072 4.432 34.56-5.872 38.992-22.992 23.328-90.384 15.344-187.28-22.512-272.816-64.512-145.76-209.264-242.768-368.736-247.12-3.776-0.080-7.552-0.128-11.296-0.128zM512 348.16c-8.192 0-16.384 3.12-22.624 9.376-12.496 12.496-12.496 32.752 0 45.248l384 384c12.48 12.496 32.768 12.496 45.248 0 12.496-12.496 12.496-32.752 0-45.248l-384-384c-6.24-6.24-14.432-9.376-22.624-9.376zM512 348.16c-8.192 0-16.384 3.12-22.624 9.376l-135.76 135.76c-12.496 12.496-12.496 32.752 0 45.248 12.48 12.496 32.768 12.496 45.248 0l135.76-135.76c12.496-12.496 12.496-32.752 0-45.248-6.24-6.24-14.432-9.376-22.624-9.376z" />
<glyph unicode="&#xe905;" glyph-name="share" d="M812 296c-59.272 0-111.938-28.804-144.756-73.142l-282.54 144.39c4.74 16.104 7.296 33.134 7.296 50.752 0 23.862-4.678 46.648-13.148 67.506l296.12 177.916c33.040-38.78 82.208-63.422 137.028-63.422 99.252 0 180 80.748 180 180s-80.748 180-180 180c-99.252 0-180-80.748-180-180 0-22.94 4.322-44.886 12.18-65.080l-296.86-178.36c-33.016 37.636-81.438 61.44-135.32 61.44-99.252 0-180-80.748-180-180s80.748-180 180-180c60.244 0 113.664 29.752 146.354 75.332l281.72-143.97c-5.246-16.868-8.074-34.79-8.074-53.362 0-99.252 80.748-180 180-180s180 80.748 180 180c0 99.252-80.748 180-180 180zM812 900c66.168 0 120-53.832 120-120s-53.832-120-120-120-120 53.832-120 120 53.832 120 120 120zM212 298c-66.168 0-120 53.832-120 120s53.832 120 120 120 120-53.832 120-120-53.832-120-120-120zM812-4c-66.168 0-120 53.832-120 120s53.832 120 120 120 120-53.832 120-120-53.832-120-120-120z" />
<glyph unicode="&#xe906;" glyph-name="star" d="M751.328 9.888c-0.014 0-0.032 0-0.049 0-12.732 0-24.717 3.198-35.196 8.835l0.396-0.195-199.456 104.832c-1.454 0.793-3.185 1.259-5.024 1.259s-3.57-0.466-5.080-1.287l0.056 0.028-199.424-104.832c-10.1-5.422-22.098-8.608-34.841-8.608-41.32 0-74.816 33.496-74.816 74.816 0 4.477 0.393 8.862 1.147 13.122l-0.066-0.451 38.080 222.048c0.095 0.538 0.149 1.157 0.149 1.788 0 3.072-1.284 5.843-3.345 7.807l-0.004 0.004-161.216 157.344c-13.953 13.604-22.607 32.585-22.607 53.588 0 37.577 27.703 68.684 63.8 74.011l0.407 0.049 222.816 32.352c3.59 0.536 6.56 2.777 8.1 5.858l0.028 0.062 99.616 202.080c12.478 24.927 37.819 41.741 67.088 41.741s54.61-16.814 66.892-41.31l0.196-0.431 99.68-202.016c1.58-3.132 4.545-5.367 8.067-5.912l0.061-0.008 223.008-32.384c36.489-5.407 64.17-36.512 64.17-74.082 0-20.989-8.639-39.96-22.556-53.551l-0.015-0.014-161.376-157.248c-2.063-1.978-3.345-4.757-3.345-7.834 0-0.624 0.053-1.235 0.154-1.83l-0.009 0.064 38.080-222.048c0.68-3.791 1.069-8.154 1.069-12.608 0-41.287-33.401-74.773-74.655-74.912h-0.013zM512 188.64c0.005 0 0.011 0 0.017 0 12.732 0 24.717-3.198 35.196-8.835l-0.396 0.195 199.424-104.8c1.464-0.852 3.222-1.354 5.098-1.354 2.382 0 4.575 0.811 6.317 2.171l-0.023-0.017c2.743 1.9 4.517 5.031 4.517 8.576 0 0.713-0.072 1.41-0.209 2.083l0.011-0.067-38.112 222.080c-0.677 3.785-1.065 8.142-1.065 12.59 0 21.005 8.638 39.993 22.555 53.604l161.39 157.293c2.005 1.965 3.249 4.701 3.249 7.728 0 5.426-3.996 9.919-9.205 10.697l-0.059 0.007-222.976 32.416c-24.858 3.697-45.437 19.187-56.124 40.497l-0.196 0.431-99.808 202.048c-1.807 3.597-5.468 6.023-9.696 6.023s-7.889-2.425-9.668-5.961l-0.028-0.062-99.616-201.984c-10.889-21.748-31.482-37.241-55.943-40.878l-0.409-0.050-222.944-32.48c-5.271-0.767-9.274-5.255-9.274-10.678 0-3.043 1.26-5.791 3.287-7.751l0.003-0.003 161.344-157.28c13.931-13.625 22.569-32.613 22.569-53.618 0-4.448-0.387-8.805-1.13-13.040l0.065 0.45-38.112-222.080c-0.101-0.555-0.159-1.194-0.159-1.847 0-5.974 4.842-10.816 10.816-10.816 1.862 0 3.614 0.471 5.144 1.299l-0.057-0.028 199.392 104.832c10.092 5.422 22.082 8.608 34.816 8.608v0z" />
<glyph unicode="&#xe907;" glyph-name="star-1" d="M1021.322 567.236c-6.742 20.735-25.133 35.415-46.805 37.376l-295.599 26.836-116.822 273.505c-8.625 20.094-28.25 33.063-50.095 33.063s-41.477-12.969-50.048-33.063l-116.822-273.505-295.646-26.836c-21.672-2-40.024-16.68-46.805-37.376-6.742-20.735-0.516-43.477 15.875-57.853l223.449-195.933-65.884-290.177c-4.82-21.336 3.461-43.399 21.164-56.196 9.516-6.914 20.696-10.367 31.915-10.367 9.641 0 19.289 2.563 27.907 7.719l254.895 152.409 254.848-152.409c18.696-11.172 42.204-10.149 59.868 2.648 17.703 12.797 25.985 34.86 21.164 56.196l-65.884 290.177 223.449 195.933c16.383 14.375 22.618 37.071 15.875 57.853z" />
<glyph unicode="&#xe908;" glyph-name="social" d="M641.472 861.728c-92.48-33.664-150.912-120.448-144.288-215.424l2.24-36.64-36.992 4.48c-134.624 17.184-252.288 75.52-352.192 173.536l-48.832 48.608-12.576-35.904c-26.624-80.032-9.6-164.576 45.856-221.44 29.6-31.424 22.912-35.904-28.096-17.184-17.76 5.952-33.312 10.464-34.784 8.224-5.152-5.248 12.576-73.312 26.624-100.256 19.232-37.44 58.432-74.048 101.376-95.776l36.256-17.184-42.912-0.736c-41.408 0-42.912-0.736-38.464-16.48 14.784-48.608 73.248-100.256 138.336-122.688l45.856-15.68-39.936-23.936c-59.168-34.464-128.736-53.888-198.304-55.328-33.28-0.736-60.64-3.744-60.64-6.016 0-7.456 90.272-49.312 142.784-65.824 157.6-48.608 344.8-27.648 485.376 55.36 99.904 59.104 199.744 176.544 246.4 290.272 25.184 60.544 50.304 171.296 50.304 224.352 0 34.432 2.24 38.912 43.648 80.032 24.448 23.936 47.36 50.112 51.808 57.6 7.424 14.24 6.624 14.24-31.072 1.504-62.88-22.464-71.776-19.456-40.672 14.208 22.912 23.936 50.304 67.328 50.304 80.032 0 2.24-11.072-1.472-23.68-8.224-13.312-7.424-42.912-18.656-65.12-25.376l-39.936-12.736-36.256 24.704c-20 13.44-48.064 28.416-62.88 32.896-37.76 10.464-95.488 8.992-129.536-2.976z" />
<glyph unicode="&#xe909;" glyph-name="linkedin" d="M1023.744-64v0.043h0.256v375.552c0 183.723-39.552 325.248-254.336 325.248-103.253 0-172.544-56.661-200.832-110.379h-2.987v93.227h-203.648v-683.648h212.053v338.517c0 89.131 16.896 175.317 127.275 175.317 108.757 0 110.379-101.717 110.379-181.035v-332.843zM16.896 619.648h212.309v-683.648h-212.309zM122.965 960c-67.883 0-122.965-55.083-122.965-122.965s55.083-124.117 122.965-124.117 122.965 56.235 122.965 124.117c-0.043 67.883-55.125 122.965-122.965 122.965z" />
<glyph unicode="&#xe90a;" glyph-name="instagram" d="M767.994 960h-511.988c-140.784 0-255.994-115.21-255.994-255.994v-512.012c0-140.747 115.21-255.994 255.994-255.994h511.988c140.784 0 255.994 115.247 255.994 255.994v512.012c0 140.784-115.21 255.994-255.994 255.994zM938.652 191.994c0-94.078-76.528-170.658-170.658-170.658h-511.988c-94.090 0-170.658 76.581-170.658 170.658v512.012c0 94.103 76.568 170.658 170.658 170.658h511.988c94.13 0 170.658-76.556 170.658-170.658v-512.012zM853.367 725.343c0-35.345-28.653-63.998-63.998-63.998s-63.998 28.653-63.998 63.998c0 35.345 28.653 63.998 63.998 63.998s63.998-28.653 63.998-63.998zM512 704.006c-141.412 0-255.994-114.595-255.994-255.994 0-141.347 114.582-256.019 255.994-256.019 141.372 0 255.994 114.672 255.994 256.019 0 141.399-114.622 255.994-255.994 255.994zM512 277.329c-94.245 0-170.658 76.413-170.658 170.683s76.413 170.658 170.658 170.658 170.658-76.388 170.658-170.658-76.413-170.683-170.658-170.683z" />
<glyph unicode="&#xe90b;" glyph-name="left-arrow-angle" d="M340.8 409.6c88-88 176-176 264-264 12.8-12.8 25.6-25.6 38.4-38.4 28.8-28.8 75.2 16 44.8 44.8-88 88-176 176-264 264-4.8 4.8-9.6 9.6-14.4 14.4 80 80 160 160 240 240 12.8 12.8 24 24 36.8 36.8 28.8 28.8-16 75.2-44.8 44.8l-299.2-299.2c-14.4-9.6-14.4-30.4-1.6-43.2z" />
<glyph unicode="&#xe90c;" glyph-name="right-arrow-angle" d="M683.2 486.4c-88 88-176 176-264 264-12.8 12.8-25.6 25.6-38.4 38.4-28.8 28.8-75.2-16-44.8-44.8 88-88 176-176 264-264 4.8-4.8 9.6-9.6 14.4-14.4-80-80-160-160-240-240-12.8-12.8-24-24-36.8-36.8-28.8-28.8 16-75.2 44.8-44.8l299.2 299.2c14.4 9.6 14.4 30.4 1.6 43.2z" />
<glyph unicode="&#xe90d;" glyph-name="phone" d="M582.882 959.999c-11.047 0-20-8.953-20-20s8.953-20 20-20c221.179 0 401.117-179.945 401.117-401.117 0-11.047 8.961-20 20-20 11.047 0 20 8.953 20 20 0 243.226-197.883 441.117-441.117 441.117zM883.686 498.875c11.047 0 20 8.961 20 20 0 176.898-143.914 320.812-320.804 320.812-11.047 0-20-8.961-20-20 0-11.047 8.953-20 20-20 154.836 0 280.804-125.969 280.804-280.812 0-11.039 8.953-20 20-20zM743.351 518.875c0-11.039 8.953-20 20-20s20 8.961 20 20c0 110.539-89.93 200.468-200.468 200.468-11.047 0-20-8.953-20-19.992 0-11.047 8.953-20 20-20 88.484 0 160.469-71.984 160.469-160.476zM562.882 579.031c0-11.039 8.953-19.992 20-19.992 22.141 0 40.156-18.016 40.156-40.164 0-11.039 8.953-20 20-20 11.039 0 20 8.961 20 20 0 44.203-35.961 80.156-80.156 80.156-11.047 0-20-8.953-20-20zM374.867 310.641c0-11.047-8.953-20-20-20s-20 8.953-20 20c0 11.039 8.953 20 20 20s20-8.961 20-20zM548.062-39.718c91.070-44.633 200.633-26.062 272.648 45.953l41.352 41.352c22.453 22.43 22.461 58.766 0.008 81.211l-159.781 159.765c-22.414 22.445-58.758 22.477-81.195 0.008l-67.891-67.898c-13.297-13.297-33.82-16.008-48.789-6.453-24.406 15.602-48.148 32.805-70.562 51.133-8.555 6.992-21.148 5.727-28.141-2.82-6.992-8.555-5.727-21.156 2.82-28.141 23.617-19.312 48.625-37.437 74.351-53.875 30.664-19.586 72.133-14.594 98.601 11.875l67.906 67.906c6.789 6.797 17.789 6.812 24.609-0.008l159.789-159.773c6.805-6.812 6.82-17.828 0-24.633l-41.359-41.367c-59.992-59.992-151.117-75.391-226.765-38.32-277.132 135.898-427.913 351.382-505.601 508.226-37.164 75.008-21.734 165.789 38.398 225.906l40.453 40.445c6.781 6.797 17.789 6.82 24.602-0.008l159.804-159.797c6.766-6.758 6.836-17.773-0.016-24.609l-67.891-67.898c-26.469-26.469-31.461-67.937-11.875-98.609 11.539-18.055 23.977-35.867 36.977-52.937 6.687-8.789 19.234-10.484 28.023-3.797s10.492 19.234 3.797 28.031c-12.328 16.195-24.141 33.102-35.094 50.234-9.555 14.977-6.844 35.5 6.453 48.797l67.883 67.883c22.445 22.414 22.469 58.766 0.016 81.195l-159.789 159.781c-22.406 22.445-58.758 22.477-81.187 0.008l-40.437-40.437c-72.281-72.258-90.75-181.547-45.961-271.945 80.445-162.398 236.617-385.539 523.843-526.382z" />
<glyph unicode="&#xe90e;" glyph-name="envelope" d="M938.666 832h-853.332c-47.064 0-85.334-38.27-85.334-85.334v-597.334c0-47.062 38.27-85.332 85.334-85.332h853.334c47.062 0 85.332 38.27 85.332 85.334v597.332c0 47.064-38.27 85.334-85.334 85.334zM85.334 789.334h853.334c3.144 0 5.914-1.146 8.864-1.794-73.878-67.614-318.846-291.718-404.572-368.956-6.708-6.042-17.52-13.25-30.958-13.25s-24.25 7.208-30.98 13.27c-85.718 77.226-330.7 301.342-404.566 368.932 2.956 0.648 5.732 1.798 8.878 1.798zM42.666 149.334v597.332c0 4.18 1.26 7.972 2.388 11.792 56.544-51.752 227.472-208.12 338.304-308.906-110.472-94.894-281.444-256.99-338.438-311.338-1.006 3.628-2.254 7.176-2.254 11.12zM938.666 106.666h-853.332c-3.408 0-6.438 1.188-9.62 1.948 58.894 56.144 230.954 219.172 339.484 312.018 14.148-12.834 27.072-24.536 37.26-33.716 17.584-15.876 38.166-24.25 59.542-24.25s41.958 8.376 59.52 24.23c10.192 9.184 23.126 20.896 37.282 33.736 108.536-92.836 280.572-255.852 339.484-312.018-3.182-0.76-6.208-1.948-9.62-1.948zM981.334 149.334c0-3.942-1.248-7.492-2.252-11.12-57.016 54.376-227.968 216.454-338.438 311.336 110.836 100.786 281.738 257.14 338.302 308.912 1.128-3.82 2.388-7.614 2.388-11.794v-597.334z" />
<glyph unicode="&#xe90f;" glyph-name="worldwide" d="M512.106 959.798h-0.208c-282.71 0-511.898-229.187-511.898-511.898 0-282.718 229.187-511.898 511.898-511.898h0.208c282.71 0 511.898 229.179 511.898 511.898 0 282.71-229.187 511.898-511.898 511.898zM951.41 635.596h-226.446c-13.206 47.382-31.61 93.165-54.889 136.506h192.561c37.159-40.109 67.187-86.274 88.774-136.506zM511.948 920.106c37.309-33.668 70.203-71.936 97.872-113.877h-195.628c27.636 41.942 60.48 80.209 97.755 113.877zM373.309 806.228h-176.723c75.143 66.453 169.374 107.462 269.221 117.152-35.318-35.285-66.362-74.61-92.498-117.152zM558.172 923.413c99.93-9.656 194.244-50.673 269.446-117.185h-176.89c-26.153 42.558-57.214 81.892-92.556 117.185zM630.965 772.102c24.92-43.033 44.683-88.849 58.888-136.506h-355.512c14.131 47.649 33.852 93.473 58.73 136.506zM161.576 772.102h192.403c-23.237-43.341-41.6-89.124-54.756-136.506h-226.43c21.587 50.232 51.615 96.397 88.782 136.506zM59.788 601.469h904.627c33.943-99.572 33.943-207.575 0-307.139h-904.627c-33.943 99.563-33.943 207.567 0 307.139zM511.964-24.314c-37.276 33.668-70.136 71.936-97.772 113.886h195.628c-27.669-41.95-60.563-80.217-97.872-113.886zM650.728 89.572h176.89c-75.243-66.545-169.616-107.562-269.596-117.193 35.393 35.293 66.512 74.627 92.706 117.193zM465.807-27.588c-99.847 9.698-194.078 50.698-269.221 117.16h176.723c26.136-42.55 57.18-81.867 92.498-117.16zM393.071 123.698c-24.878 43.033-44.599 88.849-58.73 136.506h355.512c-14.205-47.657-33.968-93.473-58.888-136.506zM72.794 260.204h226.43c13.156-47.382 31.519-93.165 54.756-136.506h-192.403c-37.168 40.1-67.195 86.274-88.782 136.506zM862.636 123.698h-192.561c23.279 43.333 41.683 89.116 54.889 136.506h226.446c-21.587-50.232-51.615-96.406-88.774-136.506zM137.306 358.093c2.008-7.349 8.632-12.481 16.247-12.572h0.225c7.532 0 14.18 4.941 16.347 12.164l34.843 116.152 34.843-116.152c2.158-7.224 8.807-12.164 16.347-12.164h0.217c7.615 0.092 14.247 5.224 16.247 12.572l51.19 187.696-32.935 8.973-35.51-130.191-34.127 113.536c-2.158 7.224-8.807 12.173-16.347 12.173-7.532 0-14.18-4.949-16.347-12.173l-34.127-113.536-35.501 130.191-32.935-8.973zM460.691 345.52h0.225c7.532 0 14.18 4.941 16.347 12.164l34.843 116.152 34.843-116.152c2.158-7.224 8.807-12.164 16.347-12.164h0.217c7.615 0.092 14.247 5.224 16.247 12.572l51.19 187.696-32.935 8.973-35.51-130.191-34.127 113.536c-2.158 7.224-8.807 12.173-16.347 12.173-7.532 0-14.18-4.949-16.347-12.173l-34.127-113.536-35.501 130.191-32.935-8.973 51.19-187.696c2.016-7.399 8.715-12.539 16.38-12.572zM767.83 345.52h0.225c7.532 0 14.18 4.941 16.347 12.164l34.843 116.152 34.843-116.152c2.158-7.224 8.807-12.164 16.347-12.164h0.217c7.615 0.092 14.247 5.224 16.247 12.572l51.19 187.696-32.935 8.973-35.51-130.191-34.127 113.536c-2.158 7.224-8.807 12.173-16.347 12.173-7.532 0-14.18-4.949-16.347-12.173l-34.127-113.536-35.501 130.191-32.935-8.973 51.19-187.696c2.016-7.399 8.715-12.539 16.38-12.572z" />
<glyph unicode="&#xe910;" glyph-name="send" d="M1015.212 951.212c-7.804 7.804-19.264 10.692-29.834 7.522l-917.762-275.33c-40.444-12.132-67.616-48.652-67.616-90.89 0-41.652 27.97-78.734 68.022-90.178l387.578-110.736 110.736-387.578c11.444-40.050 48.526-68.022 90.194-68.022 42.222 0 78.742 27.172 90.876 67.616l275.328 917.764c3.172 10.57 0.284 22.028-7.522 29.832zM60 592.528c0 15.522 9.988 28.946 24.856 33.406l803.792 241.138-417.512-417.512-386.632 110.466c-14.426 4.124-24.504 17.482-24.504 32.502zM689.936 20.856c-4.46-14.868-17.884-24.856-33.422-24.856-15.006 0-28.364 10.076-32.486 24.504l-110.466 386.632 417.512 417.512z" />
<glyph unicode="&#xe911;" glyph-name="left-arrow" d="M896 448c0-17.674-14.327-32-32-32h-704c-17.674 0-32 14.326-32 32s14.326 32 32 32h704c17.673 0 32-14.326 32-32zM470.627 137.372c-12.496-12.497-32.758-12.497-45.254 0l-288 288c-12.496 12.496-12.496 32.758 0 45.254l288 288c12.496 12.496 32.758 12.496 45.254 0s12.496-32.758 0-45.254l-265.373-265.373 265.373-265.372c12.496-12.497 12.496-32.758 0-45.255z" />
<glyph unicode="&#xe912;" glyph-name="right-arrow" d="M128 448c0 17.674 14.327 32 32 32h704c17.674 0 32-14.326 32-32s-14.326-32-32-32h-704c-17.673 0-32 14.326-32 32zM553.373 758.628c12.496 12.497 32.758 12.497 45.254 0l288-288c12.496-12.496 12.496-32.758 0-45.254l-288-288c-12.496-12.496-32.758-12.496-45.254 0s-12.496 32.758 0 45.254l265.373 265.373-265.373 265.372c-12.496 12.497-12.496 32.758 0 45.255z" />
<glyph unicode="&#xe913;" glyph-name="user" d="M512 416c-135.253 0-245.333 110.080-245.333 245.333s110.080 245.333 245.333 245.333 245.333-110.080 245.333-245.333-110.080-245.333-245.333-245.333zM512 842.667c-99.84 0-181.333-81.493-181.333-181.333s81.493-181.333 181.333-181.333 181.333 81.493 181.333 181.333-81.493 181.333-181.333 181.333zM878.511-10.667c-17.493 0-32 14.507-32 32 0 147.2-150.182 266.667-334.502 266.667-184.322 0-334.508-119.467-334.508-266.667 0-17.493-14.507-32-32-32s-32 14.507-32 32c0 182.187 178.773 330.667 398.508 330.667 219.733 0 398.502-148.48 398.502-330.667 0-17.493-14.507-32-32-32z" />
<glyph unicode="&#xe914;" glyph-name="menu" d="M0 220.445h1024v-113.779h-1024v113.779zM0 504.888h1024v-113.779h-1024v113.779zM0 789.333h1024v-113.779h-1024v113.779z" />
<glyph unicode="&#xe915;" glyph-name="left-arrow-1" d="M280.844 167.157l45.612 45.614-202.973 202.975h900.517v64.509h-900.517l202.973 202.973-45.612 45.614-280.844-280.844z" />
<glyph unicode="&#xe916;" glyph-name="right-arrow-1" d="M743.156 728.843l-45.612-45.614 202.973-202.975h-900.517v-64.509h900.517l-202.973-202.973 45.612-45.614 280.844 280.844z" />
<glyph unicode="&#xe917;" glyph-name="play-button-arrowhead" d="M217.828 937.422c-92.319 52.956-167.166 9.574-167.166-96.819v-785.131c0-106.499 74.847-149.825 167.166-96.919l686.243 393.556c92.351 52.974 92.351 138.801 0 191.763l-686.243 393.55z" />
<glyph unicode="&#xe918;" glyph-name="tick" d="M1009.004 809.008c-19.994 19.996-52.41 19.996-72.408 0l-613.408-613.414-235.784 235.784c-19.994 19.996-52.41 19.994-72.408 0-19.996-19.994-19.996-52.41 0-72.406l271.988-271.984c19.988-19.994 52.428-19.98 72.408 0l649.612 649.612c19.996 19.994 19.994 52.412 0 72.408z" />
<glyph unicode="&#xe919;" glyph-name="right-arrow-2" d="M830.88 432l-814.88 0.656c-8.837 0-16 7.163-16 16s7.163 16 16 16v0l814.896-0.656c8.837 0 16-7.163 16-16s-7.163-16-16-16v0zM1024 447.808c-90.896-33.6-203.696-91.072-273.6-152l55.136 152.192-54.928 152.208c69.84-61.008 182.544-118.608 273.392-152.4z" />
<glyph unicode="&#xe91a;" glyph-name="left-arrow-3" d="M6.768 431.593v0l232.722-232.724c8.36-9.762 23.052-10.9 32.813-2.538 9.762 8.36 10.9 23.052 2.538 32.813-0.78 0.91-1.628 1.76-2.538 2.538l-192.927 193.161h921.352c12.852 0 23.272 10.42 23.272 23.274s-10.42 23.272-23.272 23.272h-921.352l192.927 192.927c9.762 8.36 10.9 23.052 2.538 32.813s-23.052 10.9-32.813 2.538c-0.91-0.78-1.76-1.628-2.538-2.538l-232.724-232.724c-9.022-9.074-9.022-23.734 0.002-32.811z" />
<glyph unicode="&#xe91b;" glyph-name="right-arrow-3" d="M1017.232 464.407v0l-232.722 232.724c-8.36 9.762-23.052 10.9-32.813 2.538-9.762-8.36-10.9-23.052-2.538-32.813 0.78-0.91 1.628-1.76 2.538-2.538l192.927-193.161h-921.352c-12.852 0-23.272-10.42-23.272-23.274s10.42-23.272 23.272-23.272h921.352l-192.927-192.927c-9.762-8.36-10.9-23.052-2.538-32.813s23.052-10.9 32.813-2.538c0.91 0.78 1.76 1.628 2.538 2.538l232.724 232.724c9.022 9.074 9.022 23.734-0.002 32.811z" />
<glyph unicode="&#xe91c;" glyph-name="right-arrow-of-straight-thin-line" d="M1013.487 466.211l-244.961 141.428c-10.057 5.805-22.915 2.359-28.722-7.696-5.808-10.057-2.359-22.915 7.696-28.722l177.072-102.232h-903.544c-11.613 0-21.027-9.416-21.027-21.027 0-11.609 9.414-21.027 21.027-21.027h903.403l-176.931-102.154c-10.057-5.808-13.503-18.665-7.696-28.722 3.896-6.745 10.961-10.518 18.228-10.518 3.566 0 7.183 0.913 10.494 2.822l244.961 141.43c6.506 3.755 10.513 10.698 10.513 18.209s-4.008 14.454-10.513 18.209z" />
<glyph unicode="&#xe91d;" glyph-name="play-button" d="M902.952 551.149l-690.659 393.081c-73.262 41.825-147.955-3.917-147.955-86.171v-820.596c0-69.686 45.367-101.463 87.533-101.463 19.857 0 40.088 6.267 60.183 18.494l693.759 424.654c34.877 21.423 54.461 53.133 53.848 87.022-0.579 33.923-21.219 64.917-56.709 84.979zM859.322 454.999l-693.725-424.552c-4.666-2.861-8.345-4.292-10.865-5.007-0.681 2.52-1.362 6.403-1.362 12.023v820.562c0 8.447 1.533 12.704 1.533 13.76 2.725-0.17 7.493-1.567 13.488-4.973l690.557-393.081c8.515-4.871 11.035-9.094 11.853-8.174-0.443-1.158-3.338-5.484-11.478-10.558z" />
<glyph unicode="&#xe91e;" glyph-name="facebook" d="M682.539 789.973h93.483v162.816c-16.128 2.219-71.595 7.211-136.192 7.211-134.784 0-227.115-84.779-227.115-240.597v-143.403h-148.736v-182.016h148.736v-457.984h182.357v457.941h142.72l22.656 182.016h-165.419v125.397c0.043 52.608 14.208 88.619 87.509 88.619z" />
<glyph unicode="&#xe91f;" glyph-name="twitter" d="M1024 765.504c-38.080-16.704-78.656-27.776-120.96-33.152 43.52 25.984 76.736 66.816 92.352 116.032-40.576-24.192-85.376-41.28-133.12-50.816-38.528 41.024-93.44 66.432-153.344 66.432-116.224 0-209.792-94.336-209.792-209.984 0-16.64 1.408-32.64 4.864-47.872-174.528 8.512-328.96 92.16-432.704 219.584-18.112-31.424-28.736-67.392-28.736-106.112 0-72.704 37.44-137.152 93.248-174.464-33.728 0.64-66.816 10.432-94.848 25.856 0-0.64 0-1.472 0-2.304 0-102.016 72.768-186.752 168.192-206.272-17.088-4.672-35.712-6.912-55.040-6.912-13.44 0-27.008 0.768-39.744 3.584 27.2-83.136 104.384-144.256 196.16-146.24-71.424-55.872-162.112-89.536-260.288-89.536-17.216 0-33.728 0.768-50.24 2.88 92.992-59.968 203.2-94.208 322.048-94.208 386.304 0 597.504 320 597.504 597.376 0 9.28-0.32 18.24-0.768 27.136 41.664 29.568 76.672 66.496 105.216 108.992z" />
<glyph unicode="&#xe920;" glyph-name="menu-1" d="M213.333 960h-170.667c-23.552 0-42.667-19.115-42.667-42.667v-170.667c0-23.552 19.115-42.667 42.667-42.667h170.667c23.552 0 42.667 19.115 42.667 42.667v170.667c0 23.552-19.115 42.667-42.667 42.667zM213.333 576h-170.667c-23.552 0-42.667-19.115-42.667-42.667v-170.667c0-23.552 19.115-42.667 42.667-42.667h170.667c23.552 0 42.667 19.115 42.667 42.667v170.667c0 23.552-19.115 42.667-42.667 42.667zM213.333 192h-170.667c-23.552 0-42.667-19.115-42.667-42.667v-170.667c0-23.552 19.115-42.667 42.667-42.667h170.667c23.552 0 42.667 19.115 42.667 42.667v170.667c0 23.552-19.115 42.667-42.667 42.667zM597.333 960h-170.667c-23.552 0-42.667-19.115-42.667-42.667v-170.667c0-23.552 19.115-42.667 42.667-42.667h170.667c23.552 0 42.667 19.115 42.667 42.667v170.667c0 23.552-19.115 42.667-42.667 42.667zM597.333 576h-170.667c-23.552 0-42.667-19.115-42.667-42.667v-170.667c0-23.552 19.115-42.667 42.667-42.667h170.667c23.552 0 42.667 19.115 42.667 42.667v170.667c0 23.552-19.115 42.667-42.667 42.667zM597.333 192h-170.667c-23.552 0-42.667-19.115-42.667-42.667v-170.667c0-23.552 19.115-42.667 42.667-42.667h170.667c23.552 0 42.667 19.115 42.667 42.667v170.667c0 23.552-19.115 42.667-42.667 42.667zM981.333 960h-170.667c-23.552 0-42.667-19.115-42.667-42.667v-170.667c0-23.552 19.115-42.667 42.667-42.667h170.667c23.552 0 42.667 19.115 42.667 42.667v170.667c0 23.552-19.115 42.667-42.667 42.667zM981.333 576h-170.667c-23.552 0-42.667-19.115-42.667-42.667v-170.667c0-23.552 19.115-42.667 42.667-42.667h170.667c23.552 0 42.667 19.115 42.667 42.667v170.667c0 23.552-19.115 42.667-42.667 42.667zM981.333 192h-170.667c-23.552 0-42.667-19.115-42.667-42.667v-170.667c0-23.552 19.115-42.667 42.667-42.667h170.667c23.552 0 42.667 19.115 42.667 42.667v170.667c0 23.552-19.115 42.667-42.667 42.667z" />
<glyph unicode="&#xe921;" glyph-name="menu-2" d="M85.333 490.667h853.333v-85.333h-853.333zM85.333 746.667h853.333v-85.333h-853.333zM85.333 234.667h853.333v-85.333h-853.333z" />
<glyph unicode="&#xe922;" glyph-name="cancel" d="M535.452 448.103l483.713 483.713c6.446 6.448 6.446 16.901 0 23.349-6.448 6.446-16.901 6.446-23.349 0l-483.713-483.713-483.713 483.713c-6.56 6.335-17.012 6.153-23.349-0.407-6.18-6.399-6.18-16.544 0-22.943l483.713-483.713-483.713-483.713c-6.56-6.337-6.741-16.79-0.405-23.349s16.79-6.741 23.349-0.405c0.138 0.132 0.272 0.268 0.405 0.405l483.713 483.713 483.713-483.713c6.56-6.337 17.012-6.155 23.349 0.405 6.182 6.399 6.182 16.546 0 22.945l-483.713 483.713z" />
<glyph unicode="&#xe923;" glyph-name="up-right-arrow-1" d="M853.76 836.256h-592.16c-17.673 0-32-14.327-32-32s14.327-32 32-32v0h529.408l-656.608-656.64c-6.36-5.867-10.329-14.243-10.329-23.545 0-17.673 14.327-32 32-32 9.303 0 17.678 3.97 23.525 10.307l0.020 0.022 656.64 656.64v-529.44c0-17.673 14.327-32 32-32s32 14.327 32 32v0 592.128c-0.036 25.671-20.828 46.473-46.491 46.528h-0.005z" />
<glyph unicode="&#xe924;" glyph-name="link" d="M579.888 483.872c-8.192 0-16.384 3.12-22.624 9.376-49.904 49.904-131.104 49.92-181.024 0-12.48-12.496-32.768-12.496-45.248 0-12.496 12.496-12.496 32.752 0 45.248 74.864 74.88 196.672 74.864 271.52 0 12.496-12.496 12.496-32.752 0-45.248-6.24-6.256-14.448-9.376-22.624-9.376zM557.264 301.328c-49.168 0-98.336 18.72-135.76 56.144-12.496 12.496-12.496 32.752 0 45.248 12.48 12.496 32.768 12.496 45.248 0 49.904-49.904 131.104-49.92 181.024 0 12.48 12.496 32.768 12.496 45.248 0 12.496-12.496 12.496-32.752 0-45.248-37.44-37.424-86.608-56.144-135.76-56.144zM670.384 348.112c-8.192 0-16.384 3.12-22.624 9.376-12.496 12.496-12.496 32.752 0 45.248l178.752 178.752c12.48 12.496 32.768 12.496 45.248 0 12.496-12.496 12.496-32.752 0-45.248l-178.752-178.752c-6.24-6.256-14.432-9.376-22.624-9.376zM401.136 78.864c-8.192 0-16.384 3.12-22.624 9.376-12.496 12.496-12.496 32.752 0 45.248l99.92 99.92c12.48 12.496 32.768 12.496 45.248 0 12.496-12.496 12.496-32.752 0-45.248l-99.92-99.92c-6.24-6.256-14.432-9.376-22.624-9.376zM174.864 305.136c-8.192 0-16.384 3.12-22.624 9.376-12.496 12.496-12.496 32.752 0 45.248l178.752 178.736c12.496 12.496 32.768 12.496 45.248 0 12.496-12.496 12.496-32.752 0-45.248l-178.752-178.736c-6.256-6.24-14.448-9.376-22.624-9.376zM522.944 653.2c-8.192 0-16.368 3.12-22.624 9.36-12.496 12.496-12.496 32.752 0 45.264l99.92 99.936c12.496 12.496 32.752 12.496 45.264 0 12.496-12.496 12.496-32.752 0-45.264l-99.92-99.936c-6.256-6.224-14.464-9.36-22.64-9.36zM288 33.040c-49.488 0-98.976 18.4-135.76 55.2-73.6 73.6-73.6 197.936 0 271.536 12.48 12.496 32.768 12.496 45.248 0 12.496-12.496 12.496-32.752 0-45.248-49.056-49.056-49.056-131.968 0-181.024s131.968-49.056 181.024 0c12.48 12.496 32.768 12.496 45.248 0 12.496-12.496 12.496-32.752 0-45.248-36.784-36.816-86.272-55.216-135.76-55.216zM849.136 526.864c-8.192 0-16.384 3.12-22.624 9.376-12.496 12.496-12.496 32.752 0 45.248 49.056 49.056 49.056 131.968 0 181.024s-131.968 49.056-181.024 0c-12.48-12.496-32.768-12.496-45.248 0-12.496 12.496-12.496 32.752 0 45.248 73.6 73.6 197.936 73.6 271.536 0s73.6-197.936 0-271.536c-6.256-6.24-14.448-9.36-22.64-9.36z" />
<glyph unicode="&#xe925;" glyph-name="zoom-in" d="M949.76 55.36l-160 148.16c64.906 73.038 104.555 169.782 104.555 275.786 0 229.75-186.25 416-416 416s-416-186.25-416-416c0-229.75 186.25-416 416-416 101.765 0 194.996 36.541 267.287 97.218l-0.642-0.524v-1.6l160-149.12c5.855-6.245 14.156-10.135 23.365-10.135 17.673 0 32 14.327 32 32 0 10.007-4.594 18.942-11.787 24.81l-0.058 0.046zM480 128c-194.404 0-352 157.596-352 352s157.596 352 352 352c194.404 0 352-157.596 352-352v0c0-194.404-157.596-352-352-352v0zM720 480c0-17.673-14.327-32-32-32v0h-176v-176c0-17.673-14.327-32-32-32s-32 14.327-32 32v0 176h-176c-17.673 0-32 14.327-32 32s14.327 32 32 32v0h176v176c0 17.673 14.327 32 32 32s32-14.327 32-32v0-176h176c17.673 0 32-14.327 32-32v0z" />
<glyph unicode="&#xe926;" glyph-name="3d-rendering" d="M944.318 558.421v138.039c0 38.478-24.787 92.22-142.852 129.744-76.672 24.374-179.475 37.796-289.466 37.796-109.993 0-212.796-13.42-289.476-37.796-118.056-37.524-142.844-91.266-142.844-129.744v-138.039c-45.414-8.911-79.68-47.373-79.68-93.325v-387.036c0-22.116 17.992-40.115 40.1-40.115h109.634c22.118 0 40.11 17.993 40.11 40.115v67.712h644.32v-67.712c0-22.116 17.984-40.115 40.098-40.115h109.634c22.11 0 40.102 17.993 40.102 40.115v387.034c0 45.952-34.266 84.412-79.68 93.327zM119.968 696.46c0 47.744 71.9 77.728 114.761 91.352 72.83 23.156 171.3 35.9 277.271 35.9 105.958 0 204.429-12.744 277.265-35.9 42.859-13.624 114.765-43.608 114.765-91.352v-136.085h-47.281v34.671c0 32.548-26.468 59.016-58.993 59.016h-176.608c-32.531 0-58.993-26.468-58.993-59.016v-34.669h-94.242v34.669c0 32.548-26.46 59.016-58.991 59.016h-176.61c-32.522 0-58.992-26.468-58.992-59.016v-34.669h-53.352v136.083zM602.436 560.375v34.671c0 10.159 8.57 18.737 18.711 18.737h176.608c10.313 0 18.703-8.41 18.703-18.737v-34.669l-214.022-0.002zM213.602 560.375v34.671c0 10.336 8.397 18.737 18.709 18.737h176.61c10.313 0 18.709-8.41 18.709-18.737v-34.669l-214.029-0.002zM40.282 465.094c0 30.327 26.71 54.993 59.546 54.993h824.343c32.836 0 59.546-24.666 59.546-54.993v-171.164h-391.836c-11.123 0-20.139-9.015-20.139-20.139s9.015-20.141 20.139-20.141h391.838v-67.603h-943.436v67.601h391.835c11.123 0 20.141 9.015 20.141 20.141 0 11.123-9.018 20.139-20.141 20.139h-391.837l0.002 171.166zM149.554 78.227h-109.272v67.539h109.272v-67.539zM874.445 78.227v67.539h109.271v-67.539h-109.271zM512.030 253.647h0.337c11.123 0 20.139 9.015 20.139 20.141 0 11.123-9.015 20.139-20.139 20.139h-0.337c-11.125 0-20.139-9.013-20.139-20.139s9.013-20.141 20.139-20.141z" />
<glyph unicode="&#xe927;" glyph-name="architecture" d="M0 86.382c0-19.356 15.685-35 35-35h953.997c19.315 0 35 15.644 35 35v37.619c0 8.284-6.715 14.999-15.002 14.999-8.284 0-14.999-6.715-14.999-14.999v-37.619c0-2.767-2.235-5-5-5h-953.997c-2.765 0-5 2.232-5 5v723.237c0 2.766 2.235 5 5 5h50.84c8.284 0 15 6.716 15 15s-6.716 15-15 15h-50.84c-19.314 0-35-15.646-35-35v-723.237zM1009.009 179c8.284 0 14.999 6.715 14.999 14.999v615.619c0 19.354-15.685 35-35 35h-833.157c-8.284 0-15-6.716-15-15s6.716-15 15-15h833.157c2.765 0 5-2.234 5-5v-615.619c0-8.284 6.715-14.999 15.002-14.999zM85.565 136.94c3.563-3.564 8.396-5.565 13.435-5.565h825.997c5.041 0 9.871 2.002 13.435 5.565s5.565 8.397 5.565 13.435v595.253c0 5.039-2.002 9.872-5.565 13.435s-8.394 5.565-13.435 5.565h-825.997c-5.040 0-9.872-2.002-13.435-5.565s-5.565-8.396-5.565-13.435v-595.253c0-5.038 2.002-9.871 5.565-13.435zM110 161.375v573.252h803.997v-573.252h-803.997zM795.451 501.117c0-8.284 6.715-14.999 14.999-14.999h118.559c8.284 0 15.002 6.715 15.002 14.999 0 8.287-6.717 15.002-15.002 15.002h-118.559c-8.284 0-14.999-6.715-14.999-15.002zM752.369 440.829c5.86 5.855 5.862 15.352 0.005 21.212l-47.923 47.941c-3.991 3.994-9.352 6.134-14.845 6.134h-58.68v233.5c0 8.284-6.715 15-14.999 15s-15.002-6.716-15.002-15v-242.499c0-11.553 9.364-21 21-21h63.967l45.266-45.286c5.855-5.857 15.352-5.86 21.212-0.003zM196.55 436.536c0-19.323 15.673-34.998 35-34.998h222.958c19.328 0 35 15.675 35 34.998v313.080c0 8.284-6.717 15-15.002 15s-14.999-6.716-14.999-15v-313.080c0-2.755-2.243-5-5-5h-222.958c-2.757 0-5 2.245-5 5v313.080c0 8.284-6.716 15-15 15s-15-6.716-15-15v-313.080zM196.55 622.981c0-8.284 6.716-15 15-15h262.956c8.284 0 15.002 6.716 15.002 15s-6.717 15-15.002 15h-262.956c-8.284 0-15-6.716-15-15zM270.049 707.037c0-17.124 13.875-31 31.002-31h83.976c17.093 0 31.002 13.864 31.002 31v42.58c0 8.284-6.717 15-15.002 15s-14.999-6.716-14.999-15v-42.58c0-0.543-0.453-1-1.001-1h-83.976c-0.556 0-1.001 0.444-1.001 1v42.58c0 8.284-6.715 15-14.999 15s-15.002-6.716-15.002-15v-42.58zM196.55 568.98c0-8.284 6.716-14.999 15-14.999h262.956c8.284 0 15.002 6.715 15.002 14.999s-6.717 15.002-15.002 15.002h-262.956c-8.284 0-15-6.717-15-15.002zM234.525 131.382c8.284 0 15 6.715 15 14.999v76.14c0 0.556 0.444 1.001 1 1.001h185.041c0.556 0 1.001-0.445 1.001-1.001v-76.14c0-8.284 6.715-14.999 14.999-14.999s14.999 6.715 14.999 14.999v76.14c0 17.126-13.878 31.002-30.999 31.002h-185.041c-17.124 0-31-13.878-31-31.002v-76.14c0-8.284 6.716-14.999 15-14.999zM680.924 699.481c0-14.886 12.058-27 27-27h141.901c14.94 0 27 12.112 27 27v50.14c0 8.284-6.717 15-15.002 15s-14.999-6.716-14.999-15v-47.14h-135.9v47.14c0 8.284-6.715 15-14.999 15s-15.002-6.716-15.002-15v-50.14zM853 603.361c0-34.503 27.976-62.479 62.479-62.479 6.154 0 12.163 0.891 17.879 2.627 7.928 2.409 12.401 10.785 9.994 18.711-2.406 7.928-10.785 12.401-18.711 9.994-2.844-0.863-5.914-1.334-9.162-1.334-17.935 0-32.479 14.546-32.479 32.481s14.543 32.48 32.479 32.48c3.249 0 6.318-0.469 9.162-1.332 7.926-2.408 16.305 2.066 18.711 9.993s-2.066 16.304-9.994 18.712c-5.716 1.736-11.725 2.628-17.879 2.628-34.504 0-62.479-27.976-62.479-62.48zM850.749 246.182c0-17.093 13.865-31.002 31.002-31.002h47.258c8.284 0 15.002 6.715 15.002 15.002 0 8.284-6.717 14.999-15.002 14.999h-47.258c-0.545 0-1.001 0.451-1.001 1.001v127.557c0 0.558 0.443 1.001 1.001 1.001h47.258c8.284 0 15.002 6.715 15.002 14.999 0 8.287-6.717 15.002-15.002 15.002h-47.258c-17.126 0-31.002-13.875-31.002-31.002v-127.557zM544.3 586.662c0-12.705 10.296-22.999 23.002-22.999h48.62c8.284 0 14.999 6.715 14.999 14.999s-6.715 14.999-14.999 14.999h-41.62v74.881h41.62c8.284 0 14.999 6.716 14.999 15s-6.715 15-14.999 15h-48.62c-12.705 0-23.002-10.296-23.002-23v-88.88zM615.926 131.382c8.284 0 14.999 6.715 14.999 14.999v229.619c0 8.284-6.715 15.002-14.999 15.002s-15.002-6.717-15.002-15.002v-229.619c0-8.284 6.717-14.999 15.002-14.999zM576.699 376c0-8.284 6.717-14.999 15.002-14.999h48.433c8.284 0 15.002 6.715 15.002 14.999s-6.717 14.999-15.002 14.999h-48.433c-8.284 0-15.002-6.715-15.002-14.999z" />
<glyph unicode="&#xe928;" glyph-name="basic-pricing" d="M563.475 857.6h34.133c4.526 0 8.868 1.798 12.068 4.999 3.202 3.201 4.999 7.542 4.999 12.068s-1.797 8.867-4.999 12.068c-3.2 3.201-7.542 4.999-12.068 4.999h-34.133c-4.526 0-8.868-1.798-12.068-4.999s-4.999-7.542-4.999-12.068c0-4.526 1.799-8.867 4.999-12.068s7.542-4.999 12.068-4.999zM119.742 857.6h375.466c4.526 0 8.868 1.798 12.068 4.999 3.202 3.201 4.999 7.542 4.999 12.068s-1.797 8.867-4.999 12.068c-3.2 3.201-7.542 4.999-12.068 4.999h-375.466c-4.526 0-8.867-1.798-12.068-4.999s-4.999-7.542-4.999-12.068c0-4.526 1.798-8.867 4.999-12.068s7.542-4.999 12.068-4.999zM1002.173 463.172c15.118 16.843 22.927 39.001 21.707 61.6s-11.366 43.79-28.209 58.907c-16.841 15.118-39.001 22.926-61.6 21.707s-43.79-11.366-58.907-28.209l-192.222-214.067v221.423h153.6c13.58 0 26.602 5.395 36.204 14.996s14.996 22.625 14.996 36.204v204.8c-0.041 31.672-12.64 62.035-35.036 84.431-22.395 22.395-52.758 34.995-84.431 35.036h-648.533c-31.673-0.036-62.039-12.634-84.436-35.031s-34.995-52.762-35.031-84.436v-853.333c0-13.58 5.394-26.602 14.996-36.204s22.625-14.996 36.204-14.996h580.266c13.58 0 26.602 5.395 36.204 14.996s14.996 22.624 14.996 36.204v120.474l319.232 355.499zM900.576 554.377c4.458 5.122 9.89 9.306 15.981 12.31 6.089 3.002 12.716 4.763 19.494 5.181s13.571-0.517 19.983-2.749c6.414-2.234 12.319-5.719 17.37-10.257 5.053-4.536 9.153-10.032 12.061-16.169 2.908-6.135 4.567-12.788 4.879-19.572 0.312-6.782-0.727-13.561-3.060-19.937-2.331-6.378-5.908-12.228-10.523-17.21l-57.003-63.573-76.203 68.437 57.020 63.539zM853.608 840.533v-204.8c0-4.526-1.797-8.868-4.999-12.068-3.2-3.2-7.542-4.999-12.068-4.999h-153.6v221.867c0 22.632 8.991 44.337 24.994 60.34s37.707 24.994 60.339 24.994c22.632 0 44.337-8.99 60.341-24.994 16.002-16.003 24.992-37.708 24.992-60.34zM631.741-29.867h-580.266c-4.526 0-8.867 1.799-12.068 4.999s-4.999 7.542-4.999 12.068v853.333c0.027 22.623 9.026 44.313 25.023 60.31s37.686 24.996 60.31 25.023h565.077c-11.397-11.097-20.456-24.366-26.643-39.022-6.185-14.656-9.37-30.403-9.368-46.311v-515.413l-68.813-76.612c-1.282 12.556-7.166 24.192-16.521 32.667-9.353 8.474-21.513 13.184-34.133 13.225v256h50.176c5.495-0.106 10.936 1.113 15.863 3.548 4.927 2.437 9.196 6.023 12.448 10.453 3.251 4.432 5.391 9.58 6.238 15.010 0.847 5.432 0.377 10.988-1.372 16.198l-42.138 119.467c-2.478 6.798-6.999 12.663-12.942 16.79-5.943 4.128-13.017 6.318-20.253 6.267h-118.46c-7.235 0.048-14.307-2.142-20.25-6.269-5.943-4.128-10.464-9.993-12.945-16.788l-42.155-119.467c-1.749-5.212-2.219-10.769-1.372-16.201 0.848-5.432 2.99-10.581 6.243-15.014 3.255-4.432 7.526-8.016 12.455-10.452s10.371-3.651 15.869-3.543h50.193v-256c-13.578 0-26.602-5.395-36.204-14.996s-14.996-22.624-14.996-36.204v-34.133h-51.2v55.945c5.164 2.982 9.457 7.264 12.452 12.419 2.993 5.156 4.586 11.006 4.615 16.969v30.379c6.612 5.888 11.571 13.401 14.387 21.794 2.814 8.393 3.389 17.377 1.664 26.061-1.724 8.685-5.687 16.768-11.496 23.448-5.808 6.682-13.263 11.73-21.622 14.645v105.54c0 18.106-7.192 35.47-19.995 48.271-12.802 12.803-30.165 19.995-48.271 19.995h-85.333c-18.105 0-35.469-7.192-48.272-19.995s-19.995-30.165-19.995-48.271v-105.54c-8.363-2.91-15.821-7.956-21.633-14.638s-9.777-14.764-11.502-23.451c-1.725-8.685-1.149-17.671 1.669-26.066s7.782-15.908 14.399-21.792v-30.379c0.018-5.965 1.604-11.82 4.6-16.978 2.996-5.159 7.295-9.44 12.467-12.411v-55.945c-4.526 0-8.867-1.799-12.068-4.999s-4.999-7.542-4.999-12.068c0-4.526 1.798-8.868 4.999-12.068s7.542-4.999 12.068-4.999h428.1l-50.039-136.533h-275.661c-4.526 0-8.868-1.799-12.068-4.999s-4.999-7.542-4.999-12.068c0-4.526 1.799-8.868 4.999-12.068s7.542-4.999 12.068-4.999h290.133c3.231 0.003 6.393 0.932 9.115 2.673 2.722 1.743 4.888 4.226 6.245 7.158l138.24 68.267v-95.164c0-4.526-1.797-8.868-4.999-12.068-3.2-3.2-7.542-4.999-12.068-4.999zM628.618 110.473l-103.97-51.337 39.902 108.868 64.068-57.532zM376.748 584.533c-1.707-0.461-5.871-13.653 42.155 119.467l119.467-0.29 41.148-119.177h-202.769zM461.075 550.4h34.133v-256h-34.133v256zM529.341 260.267c4.526 0 8.868-1.799 12.068-4.999 3.202-3.2 4.999-7.542 4.999-12.068v-32.154c-2.543-2.833 12.817-1.98-136.533-1.98v34.133c0 4.526 1.799 8.868 4.999 12.068s7.542 4.999 12.068 4.999h102.4zM307.475 379.733c4.526 0 8.868-1.799 12.068-4.999 3.202-3.2 4.999-7.542 4.999-12.068s-1.797-8.868-4.999-12.068c-3.2-3.2-7.542-4.999-12.068-4.999s-8.868 1.799-12.068 4.999c-3.2 3.2-4.999 7.542-4.999 12.068s1.799 8.868 4.999 12.068c3.2 3.2 7.542 4.999 12.068 4.999zM290.408 410.726c-7.137-2.55-13.621-6.653-18.98-12.012-5.361-5.361-9.463-11.844-12.013-18.982h-91.631c-2.548 7.136-6.648 13.617-12.005 18.978-5.357 5.359-11.836 9.463-18.971 12.015v105.54c0 9.052 3.596 17.734 9.997 24.136s15.083 9.998 24.136 9.998h85.333c9.052 0 17.736-3.596 24.136-9.998 6.402-6.402 9.998-15.084 9.998-24.136v-105.54zM119.742 379.733c4.526 0 8.867-1.799 12.068-4.999s4.999-7.542 4.999-12.068c0-4.526-1.798-8.868-4.999-12.068s-7.542-4.999-12.068-4.999c-4.526 0-8.867 1.799-12.068 4.999s-4.999 7.542-4.999 12.068c0 4.526 1.798 8.868 4.999 12.068s7.542 4.999 12.068 4.999zM167.784 345.6h91.631c3.517-9.948 10.022-18.567 18.625-24.677s18.884-9.412 29.435-9.457v-17.067h-187.733v17.067c10.549 0.048 20.825 3.352 29.425 9.462s15.102 14.727 18.618 24.672zM136.808 260.267h30.447l-10.24-51.2h-20.207v51.2zM201.986 260.267h23.296l10.24-51.2h-43.776l10.24 51.2zM260.012 260.267h30.396v-51.2h-20.156l-10.24 51.2zM657.495 130.423l-76.186 68.403 239.445 266.667 76.203-68.42-239.462-266.65zM153.875 38.4h-51.2c-4.526 0-8.867-1.799-12.068-4.999s-4.999-7.542-4.999-12.068c0-4.526 1.798-8.868 4.999-12.068s7.542-4.999 12.068-4.999h51.2c4.526 0 8.867 1.799 12.068 4.999s4.998 7.542 4.998 12.068c0 4.526-1.798 8.868-4.998 12.068s-7.542 4.999-12.068 4.999z" />
<glyph unicode="&#xe929;" glyph-name="envelop1" d="M533.098 379.904c-38.253 0.182-76.256 6.176-112.707 17.782-28.608 9.571-54.166 26.563-74.064 49.238-19.898 22.678-33.42 50.227-39.191 79.837-12.851 61.885 10.581 127.318 64.24 179.542 5.763 5.611 11.754 10.986 17.952 16.111 27.069 22.661 59.242 38.396 93.747 45.844 34.509 7.448 70.307 6.387 104.314-3.092 32.611-10.413 61.2-30.664 81.843-57.973 20.646-27.308 32.333-60.337 33.459-94.551 2.502-40.362-10.653-80.131-36.73-111.037-9.862-12.422-22.96-21.888-37.85-27.357-14.893-5.466-31.002-6.726-46.56-3.635-6.422 1.331-12.509 3.946-17.894 7.683-5.386 3.741-9.965 8.528-13.459 14.077-3.136 5.389-5.149 11.357-5.923 17.546-0.774 6.186-0.291 12.467 1.418 18.464 14.934 56.422 30.106 142.165 30.259 143.019 0.39 2.208 1.213 4.317 2.416 6.207 1.206 1.89 2.771 3.524 4.608 4.81s3.91 2.196 6.099 2.681c2.189 0.484 4.451 0.533 6.659 0.143 2.205-0.39 4.317-1.211 6.205-2.416 1.891-1.205 3.526-2.771 4.81-4.607 1.286-1.837 2.198-3.909 2.682-6.098 0.486-2.189 0.534-4.452 0.144-6.659-0.63-3.567-15.581-88.014-30.874-145.799-0.538-1.587-0.749-3.267-0.618-4.934 0.134-1.67 0.605-3.296 1.386-4.778 2.362-3.264 5.92-5.456 9.898-6.093 9.53-1.59 19.312-0.547 28.291 3.018 8.976 3.565 16.81 9.514 22.653 17.206 20.25 24.224 30.397 55.312 28.333 86.819-0.816 27.235-10.038 53.554-26.406 75.34-16.365 21.787-39.072 37.975-65.005 46.344-28.57 7.859-58.621 8.648-87.562 2.3-28.944-6.348-55.907-19.643-78.563-38.737-5.478-4.557-10.822-9.318-15.942-14.302-26.522-25.805-68.896-79.361-54.611-148.139 4.714-23.613 15.517-45.584 31.338-63.738s36.112-31.856 58.858-39.754c80.045-25.533 195.072-28.621 255.661 46.726 2.867 3.414 6.96 5.571 11.398 6.003 4.442 0.435 8.874-0.886 12.349-3.677 3.478-2.794 5.725-6.835 6.259-11.264s-0.688-8.89-3.402-12.429c-44.816-55.741-113.014-75.674-179.917-75.674zM474.698 468.394c-18.042-0.314-35.642 5.6-49.834 16.742-32.752 26.214-33.658 71.766-24.474 102.778 3.104 10.323 7.251 20.307 12.406 29.779 12.803 25.838 33.28 47.088 58.624 60.843 15.373 7.974 32.899 10.792 49.997 8.038s32.854-10.933 44.944-23.33c12.317-13.496 21.594-29.478 27.206-46.864 1.408-4.24 1.104-8.861-0.854-12.877-1.958-4.013-5.414-7.101-9.622-8.595-4.208-1.498-8.835-1.283-12.886 0.592-4.054 1.875-7.21 5.267-8.79 9.443-4.048 12.842-10.771 24.678-19.731 34.733-7.043 7.203-16.246 11.907-26.211 13.395s-20.141-0.322-28.982-5.153c-19.008-10.719-34.282-26.994-43.776-46.642-3.987-7.366-7.206-15.12-9.606-23.142-6.64-22.426-5.171-51.712 13.123-66.355 20.003-16.077 53.76-9.286 72.755 7.098 14.147 12.746 26.304 27.542 36.061 43.898 1.184 1.904 2.73 3.558 4.55 4.864 1.821 1.309 3.882 2.243 6.064 2.755 2.186 0.512 4.445 0.589 6.659 0.224 2.211-0.362 4.333-1.158 6.237-2.339 1.904-1.184 3.558-2.73 4.867-4.55 1.306-1.821 2.243-3.882 2.752-6.067 0.512-2.182 0.589-4.445 0.224-6.656-0.362-2.214-1.158-4.333-2.339-6.237-11.568-19.264-25.968-36.682-42.717-51.661-18.662-15.747-42.234-24.486-66.646-24.714zM972.8-63.997h-921.6c-13.575 0.016-26.59 5.414-36.189 15.011-9.599 9.6-14.998 22.614-15.011 36.189v631.469c-0.002 3.245 0.921 6.422 2.66 9.158 1.739 2.739 4.223 4.925 7.161 6.304 2.937 1.376 6.207 1.888 9.425 1.475 3.218-0.416 6.251-1.738 8.744-3.814l418.747-348.022c18.371-15.178 41.453-23.482 65.28-23.482 23.83 0 46.912 8.304 65.28 23.482l418.714 348.038c2.496 2.080 5.53 3.402 8.749 3.814 3.219 0.416 6.49-0.099 9.427-1.478 2.941-1.379 5.424-3.568 7.162-6.31 1.738-2.739 2.659-5.92 2.653-9.165v-631.469c-0.013-13.574-5.411-26.589-15.011-36.189-9.6-9.597-22.614-14.995-36.189-15.011zM34.133 582.301v-595.098c0-9.421 7.646-17.066 17.067-17.066h921.6c4.528 0 8.867 1.798 12.067 4.998s4.998 7.542 4.998 12.067v595.098l-390.79-324.778c-24.496-20.243-55.28-31.322-87.059-31.328s-62.57 11.059-87.072 31.293l-390.811 324.813zM17.069 601.603c-3.624-0.010-7.157 1.139-10.086 3.274s-5.102 5.146-6.205 8.598c-1.103 3.453-1.078 7.168 0.072 10.605s3.363 6.419 6.321 8.515l153.6 108.885c3.694 2.618 8.276 3.662 12.739 2.902s8.442-3.262 11.060-6.956c2.619-3.693 3.662-8.276 2.902-12.739s-3.262-8.442-6.956-11.060l-153.6-108.885c-2.876-2.045-6.318-3.142-9.847-3.139zM1006.902 601.603c-3.53-0.003-6.973 1.094-9.85 3.139l-153.6 108.885c-3.654 2.631-6.122 6.601-6.861 11.043s0.304 8.997 2.909 12.672c2.602 3.675 6.55 6.172 10.989 6.947 4.435 0.775 8.998-0.235 12.694-2.809l153.6-108.885c2.954-2.093 5.168-5.072 6.317-8.506 1.149-3.437 1.178-7.146 0.080-10.598-1.098-3.45-3.267-6.461-6.189-8.598-2.925-2.138-6.47-3.29-10.090-3.29zM669.68 840.535c-3.533-0.003-6.982 1.094-9.862 3.14l-81.581 57.856c-18.349 15.509-41.562 24.085-65.587 24.232s-47.338-8.146-65.875-23.43l-82.605-58.658c-3.693-2.619-8.275-3.663-12.739-2.902-4.461 0.76-8.442 3.262-11.059 6.956s-3.664 8.276-2.902 12.739c0.762 4.463 3.261 8.442 6.957 11.060l81.578 57.856c24.438 19.984 55.075 30.836 86.643 30.693 31.571-0.143 62.106-11.273 86.362-31.478l80.554-57.071c2.96-2.095 5.171-5.077 6.32-8.515 1.152-3.437 1.174-7.151 0.074-10.604-1.104-3.452-3.277-6.464-6.205-8.599s-6.461-3.282-10.086-3.275h0.016zM28.145-54.781c-3.514-0.010-6.945 1.069-9.824 3.085s-5.065 4.874-6.26 8.176c-1.195 3.306-1.341 6.899-0.417 10.291 0.924 3.389 2.871 6.413 5.577 8.656l389.462 323.584c1.725 1.43 3.712 2.509 5.856 3.171 2.141 0.666 4.39 0.899 6.624 0.691 2.23-0.205 4.4-0.851 6.384-1.894 1.984-1.046 3.741-2.47 5.174-4.195 1.43-1.725 2.509-3.715 3.171-5.856 0.666-2.144 0.899-4.394 0.691-6.627-0.205-2.23-0.851-4.4-1.894-6.384-1.046-1.984-2.47-3.741-4.195-5.171l-389.462-323.584c-3.057-2.547-6.91-3.942-10.889-3.942zM995.808-54.781c-3.981-0.006-7.834 1.389-10.89 3.942l-389.459 323.584c-1.77 1.414-3.238 3.171-4.323 5.162-1.082 1.994-1.757 4.179-1.987 6.435-0.227 2.256-0.003 4.534 0.656 6.701 0.662 2.17 1.75 4.182 3.2 5.926 1.446 1.744 3.229 3.181 5.238 4.23 2.010 1.046 4.211 1.683 6.47 1.872 2.256 0.186 4.531-0.077 6.688-0.778s4.15-1.821 5.869-3.302l389.459-323.584c2.707-2.24 4.656-5.264 5.578-8.656 0.925-3.389 0.778-6.982-0.416-10.288s-3.382-6.16-6.259-8.176c-2.88-2.016-6.31-3.078-9.824-3.069zM853.328 473.942c-4.528 0-8.867 1.798-12.070 4.998-3.2 3.203-4.998 7.542-4.998 12.070v349.388c-0.051-0.341-0.733 0.137-1.875 0.137h-644.78c-0.373 0.022-0.747-0.031-1.099-0.157s-0.675-0.322-0.949-0.577l0.171-348.79c0-4.528-1.798-8.867-4.999-12.070-3.201-3.2-7.541-4.998-12.068-4.998s-8.868 1.798-12.068 4.998c-3.2 3.203-4.999 7.542-4.999 12.070v349.524c0.268 9.295 4.208 18.106 10.957 24.503s15.758 9.86 25.054 9.63h644.78c9.296 0.23 18.304-3.233 25.053-9.63s10.688-15.208 10.957-24.503v-349.524c0-4.528-1.798-8.867-4.998-12.070-3.2-3.2-7.542-4.998-12.067-4.998z" />
<glyph unicode="&#xe92a;" glyph-name="location-1" d="M513.962 879.99c-11.060 0.080-20.081-8.82-20.16-19.86-0.081-11.040 8.8-20.060 19.859-20.14 11.040-0.080 20.060 8.8 20.141 19.84 0.079 11.040-8.8 20.060-19.84 20.16zM513.052 759.992c-77.222 0.548-140.465-61.75-141.048-138.948-0.582-77.194 61.75-140.466 138.948-141.048l1.073-0.004c76.705 0 139.396 62.112 139.976 138.952 0.582 77.19-61.748 140.466-138.948 141.048zM512.020 519.99l-0.768 0.004c-55.142 0.416-99.666 45.613-99.25 100.75 0.413 54.89 45.189 99.255 99.982 99.255l0.768-0.005c55.141-0.416 99.666-45.612 99.25-100.75-0.416-54.889-45.19-99.254-99.982-99.254zM599.264 864.822c-10.404 3.692-21.842-1.758-25.533-12.17s1.76-21.842 12.169-25.534c88.095-31.222 146.804-115.124 146.1-208.778-0.082-11.044 8.804-20.065 19.85-20.15h0.154c10.972 0 19.912 8.856 19.996 19.85 0.832 110.694-68.586 209.868-172.736 246.782zM634.721 207.116c133.027 171.231 216.16 260.521 217.283 410.328 1.408 188.486-151.556 342.556-340.028 342.556-186.272 0-338.548-150.856-339.964-337.457-1.144-153.869 83.534-243.037 217.478-415.4-133.25-19.912-217.478-69.946-217.478-131.144 0-40.995 37.892-77.78 106.698-103.58 62.626-23.484 145.48-36.417 233.298-36.417s170.671 12.933 233.298 36.417c68.806 25.802 106.698 62.588 106.698 103.583 0 61.164-84.151 111.186-217.283 131.113zM212.009 622.243c1.248 164.658 135.598 297.757 299.97 297.757 166.318 0 301.266-135.976 300.026-302.258-1.064-142.268-89.228-229.942-229.981-413.428-25.106-32.712-48.163-63.639-69.987-93.893-21.76 30.272-44.356 60.645-69.838 93.906-146.572 191.168-231.274 272.215-230.19 417.916zM512.008-24c-171.702 0-299.998 52.794-299.998 100 0 35.008 76.696 79.232 205.652 94.546 28.506-37.402 53.498-71.382 78.010-106.086 1.846-2.612 4.291-4.744 7.13-6.216s5.99-2.241 9.189-2.244h0.018c3.195 0 6.345 0.765 9.183 2.234 2.839 1.467 5.285 3.593 7.133 6.2 24.279 34.252 49.956 69.070 78.218 106.090 128.836-15.331 205.463-59.54 205.463-94.527-0.001-47.204-128.296-99.997-299.997-99.997z" />
<glyph unicode="&#xe92b;" glyph-name="menu-icon" d="M217.451 960c-33.796 0.011-66.836-10.28-94.94-29.57s-50.011-46.714-62.949-78.803c-12.938-32.088-16.326-67.399-9.735-101.466s22.864-65.361 46.761-89.922c23.897-24.561 54.345-41.286 87.492-48.060s67.504-3.292 98.725 10.006c31.221 13.297 57.904 35.812 76.674 64.697s28.782 62.842 28.772 97.576c-0.042 46.543-18.051 91.167-50.073 124.078s-75.44 51.42-120.726 51.463zM217.451 690.866c-18.013-0.011-35.624 5.469-50.607 15.747s-26.663 24.891-33.563 41.992c-6.9 17.101-8.711 35.921-5.204 54.080s12.177 34.841 24.91 47.935c12.733 13.095 28.959 22.014 46.626 25.63s35.979 1.765 52.622-5.317c16.643-7.082 30.868-19.078 40.877-34.471s15.351-33.49 15.351-52.003c-0.028-24.804-9.624-48.585-26.685-66.129s-40.193-27.421-64.327-27.464zM806.605 287.19c-33.792 0-66.825-10.296-94.92-29.594-28.099-19.293-49.999-46.718-62.929-78.801-12.93-32.088-16.314-67.393-9.723-101.455 6.595-34.062 22.868-65.35 46.76-89.907 23.896-24.557 54.337-41.281 87.478-48.058 33.145-6.777 67.496-3.3 98.714 9.993 31.223 13.289 57.907 35.793 76.679 64.67s28.793 62.827 28.793 97.559c-0.056 46.55-18.074 91.183-50.102 124.099-32.033 32.917-75.455 51.437-120.748 51.493zM806.605 18.060c-18.013 0-35.626 5.488-50.6 15.774-14.978 10.287-26.647 24.906-33.541 42.012-6.889 17.105-8.69 35.928-5.171 54.086 3.519 18.153 12.195 34.83 24.934 47.919 12.744 13.089 28.975 21.997 46.643 25.6 17.669 3.607 35.98 1.745 52.615-5.348 16.64-7.089 30.86-19.098 40.858-34.495 10.003-15.397 15.332-33.499 15.323-52.010-0.028-24.809-9.635-48.593-26.708-66.132-17.073-17.534-40.22-27.392-64.354-27.406zM806.605 960c-33.797 0-66.83-10.3-94.929-29.597-28.095-19.297-49.994-46.725-62.925-78.814s-16.31-67.398-9.714-101.462c6.595-34.064 22.877-65.352 46.774-89.907 23.901-24.556 54.346-41.275 87.491-48.044 33.15-6.769 67.5-3.284 98.718 10.015s57.898 35.814 76.665 64.698c18.767 28.884 28.779 62.839 28.77 97.571-0.056 46.548-18.078 91.172-50.106 124.082-32.033 32.909-75.455 51.416-120.744 51.459zM806.605 690.866c-18.013 0-35.621 5.489-50.595 15.773s-26.647 24.901-33.541 42.003c-6.893 17.102-8.695 35.921-5.181 54.076s12.186 34.832 24.92 47.921c12.735 13.090 28.965 22.003 46.629 25.614s35.975 1.758 52.615-5.326c16.64-7.084 30.86-19.080 40.867-34.471s15.346-33.487 15.346-51.997c-0.028-24.814-9.63-48.603-26.703-66.149s-40.215-27.416-64.358-27.445zM217.451 287.19c-33.793 0.014-66.831-10.277-94.935-29.566s-50.010-46.708-62.95-78.792c-12.94-32.084-16.331-67.393-9.744-101.46s22.854-65.359 46.746-89.921c23.892-24.562 54.334-41.295 87.478-48.072 33.144-6.782 67.499-3.305 98.721 9.984s57.909 35.793 76.685 64.67c18.776 28.877 28.798 62.832 28.798 97.564-0.042 46.545-18.049 91.178-50.069 124.095-32.020 32.922-75.439 51.442-120.73 51.498zM217.451 18.060c-18.015-0.014-35.629 5.469-50.613 15.751-14.983 10.277-26.664 24.893-33.563 41.998s-8.707 35.928-5.195 54.086c3.512 18.162 12.186 34.844 24.925 47.937s28.97 22.007 46.639 25.619c17.67 3.607 35.984 1.75 52.626-5.343 16.642-7.089 30.864-19.093 40.866-34.495 10.002-15.397 15.335-33.499 15.325-52.015-0.028-24.799-9.626-48.575-26.688-66.113-17.062-17.534-40.194-27.397-64.323-27.425z" />
<glyph unicode="&#xe92c;" glyph-name="painted-building" d="M852 502.057h-57.239l-78.033 446.399c-0.576 3.238-2.274 6.169-4.796 8.28s-5.707 3.266-8.996 3.264h-381.872c-3.294 0-6.483-1.161-9.006-3.28s-4.217-5.059-4.786-8.304l-78.032-446.4h-57.24c-3.713 0-7.274-1.474-9.899-4.1s-4.101-6.187-4.101-9.899v-36c0.015-12.196 4.866-23.889 13.489-32.512s20.315-13.474 32.511-13.489h122.528v-141.705c-14.524-3.433-27.281-12.081-35.847-24.301-8.566-12.222-12.344-27.162-10.616-41.986s8.841-28.495 19.988-38.419c11.147-9.922 25.551-15.405 40.475-15.405s29.328 5.483 40.475 15.405c11.147 9.924 18.259 23.595 19.987 38.419s-2.050 29.764-10.615 41.986c-8.565 12.22-21.323 20.868-35.846 24.301v141.722h111.473v-373.984h-115.001c-12.195-0.015-23.887-4.866-32.511-13.491-8.623-8.623-13.475-20.314-13.489-32.51v-36c0-3.712 1.475-7.275 4.1-9.899 2.625-2.626 6.186-4.1 9.899-4.1h386.001c3.712 0 7.273 1.474 9.899 4.1 2.626 2.624 4.1 6.187 4.1 9.899v36c-0.015 12.196-4.866 23.887-13.489 32.51-8.623 8.625-20.316 13.476-32.51 13.491h-115.002v373.984h262.001c12.196 0.013 23.887 4.864 32.51 13.489 8.625 8.623 13.476 20.314 13.491 32.51v36c0.002 1.841-0.358 3.663-1.060 5.365-0.702 1.7-1.732 3.247-3.034 4.55-1.299 1.301-2.844 2.336-4.544 3.040-1.7 0.706-3.522 1.069-5.363 1.069zM373.399 205.129c0-6.502-1.926-12.858-5.54-18.263-3.612-5.406-8.745-9.619-14.752-12.107s-12.616-3.138-18.993-1.871c-6.377 1.269-12.234 4.399-16.831 8.996s-7.728 10.455-8.996 16.832c-1.268 6.377-0.617 12.986 1.871 18.991 2.488 6.007 6.701 11.142 12.107 14.754s11.761 5.54 18.263 5.54c8.715-0.011 17.070-3.477 23.233-9.641 6.161-6.163 9.628-14.517 9.638-23.232zM332.8 932h358.4l51.040-291.959c-3.573-0.393-7.166-0.595-10.761-0.608-17.028-0.418-33.762 4.508-47.849 14.089-18.534 11.703-40.009 17.916-61.931 17.916s-43.396-6.212-61.933-17.916c-14.253-9.199-30.857-14.091-47.819-14.091-16.964 0-33.568 4.892-47.821 14.091-18.353 12.107-39.953 18.355-61.937 17.911-21.975 0.442-43.566-5.805-61.911-17.911-14.068-9.581-30.785-14.507-47.8-14.089-3.563 0.013-7.122 0.213-10.664 0.599l50.984 291.968zM276.944 612.329h0.464c4.993-0.572 10.015-0.855 15.040-0.849 21.986-0.461 43.593 5.775 61.952 17.882 14.251 9.201 30.852 14.095 47.817 14.095 16.962 0 33.566-4.894 47.817-14.095 18.534-11.701 40.004-17.911 61.922-17.911 21.92 0 43.39 6.21 61.924 17.911 14.257 9.201 30.865 14.095 47.831 14.095 16.969 0 33.577-4.894 47.834-14.095 18.355-12.109 39.957-18.353 61.943-17.905 5.101-0.009 10.197 0.279 15.264 0.864h0.343l19.281-110.287h-508.713l19.28 110.295zM690.999-13.952v-22.048h-357.999v22.025c0.006 4.772 1.905 9.346 5.279 12.721 3.374 3.373 7.949 5.271 12.721 5.278h322.001c4.768-0.006 9.338-1.901 12.713-5.269 3.373-3.371 5.274-7.938 5.286-12.706zM530.001 32.049h-36.002v373.984h36.002v-373.984zM837.999 452.049c-0.004-4.772-1.903-9.348-5.278-12.721-3.375-3.375-7.949-5.274-12.721-5.28h-616c-4.772 0.006-9.347 1.905-12.721 5.28-3.374 3.373-5.273 7.949-5.279 12.721v22.007h651.999v-22.007z" />
<glyph unicode="&#xe92d;" glyph-name="phone1" d="M809.714 325.669c-20.992 21.828-46.316 33.499-73.153 33.499-26.624 0-52.161-11.455-74.024-33.283l-68.392-68.079c-5.629 3.026-11.255 5.834-16.666 8.644-7.794 3.891-15.152 7.566-21.427 11.455-64.065 40.63-122.288 93.582-178.128 162.094-27.056 34.145-45.235 62.891-58.439 92.066 17.749 16.21 34.199 33.067 50.213 49.277 6.062 6.050 12.12 12.319 18.182 18.369 45.451 45.386 45.451 104.171 0 149.557l-59.088 59.001c-6.71 6.7-13.636 13.616-20.127 20.531-12.988 13.4-26.623 27.232-40.691 40.199-20.995 20.748-46.101 31.77-72.506 31.77s-51.945-11.022-73.589-31.77l-0.433-0.432-73.588-74.13c-27.704-27.664-43.504-61.379-46.967-100.497-5.194-63.109 13.419-121.892 27.704-160.363 35.063-94.444 87.44-181.976 165.574-275.772 94.799-113.033 208.861-202.291 339.156-265.182 49.781-23.558 116.227-51.436 190.464-56.192 4.545-0.216 9.307-0.432 13.636-0.432 49.997 0 91.986 17.937 124.885 53.598 0.216 0.432 0.649 0.649 0.865 1.081 11.255 13.616 24.24 25.936 37.877 39.12 9.307 8.86 18.83 18.153 28.137 27.878 21.427 22.261 32.68 48.196 32.68 74.778 0 26.8-11.469 52.52-33.331 74.132l-118.824 119.083zM887.199 98.091c-0.216-0.216-0.216 0 0 0-8.442-9.077-17.098-17.289-26.405-26.365-14.069-13.4-28.353-27.449-41.774-43.224-21.86-23.342-47.616-34.364-81.38-34.364-3.246 0-6.71 0-9.956 0.216-64.282 4.105-124.018 29.175-168.821 50.571-122.505 59.218-230.073 143.289-319.461 249.839-73.805 88.826-123.153 170.951-155.835 259.129-20.129 53.814-27.488 95.744-24.241 135.293 2.164 25.286 11.904 46.25 29.868 64.188l73.805 73.698c10.606 9.942 21.86 15.345 32.899 15.345 13.635 0 24.674-8.213 31.6-15.128l0.649-0.649c13.203-12.319 25.756-25.070 38.959-38.686 6.709-6.916 13.636-13.832 20.562-20.964l59.088-59.001c22.94-22.909 22.94-44.090 0-66.999-6.278-6.266-12.339-12.533-18.614-18.586-18.182-18.586-35.496-35.877-54.326-52.733-0.433-0.432-0.866-0.649-1.082-1.081-18.613-18.586-15.151-36.742-11.255-49.061l0.649-1.943c15.367-37.174 37.012-72.186 69.908-113.897l0.219-0.216c59.736-73.483 122.718-130.753 192.193-174.626 8.875-5.621 17.966-10.16 26.624-14.481 7.791-3.891 15.15-7.563 21.427-11.455 0.865-0.432 1.729-1.081 2.597-1.513 7.359-3.675 14.285-5.402 21.427-5.402 17.963 0 29.218 11.238 32.899 14.911l74.021 73.916c7.359 7.347 19.046 16.208 32.68 16.208 13.42 0 24.459-8.428 31.169-15.778l0.432-0.43 119.256-119.086c22.292-22.044 22.292-44.737 0.216-67.647zM553.455 716.418c56.704-9.51 108.217-36.309 149.339-77.371 41.125-41.065 67.746-92.501 77.486-149.126 2.381-14.265 14.717-24.206 28.786-24.206 1.732 0 3.248 0.216 4.978 0.432 16.017 2.594 26.621 17.724 24.024 33.715-11.688 68.511-44.151 130.97-93.716 180.462s-112.114 81.91-180.725 93.581c-16.017 2.593-30.95-7.997-33.764-23.774-2.816-15.777 7.575-31.122 23.592-33.715zM1023.553 508.291c-19.263 112.816-72.505 215.475-154.32 297.169-81.812 81.694-184.619 134.86-297.6 154.095-15.798 2.81-30.734-7.997-33.547-23.773-2.597-15.993 8.010-30.905 24.024-33.715 100.861-17.073 192.845-64.837 266.001-137.67 73.156-73.049 120.772-164.902 137.87-265.615 2.381-14.265 14.717-24.206 28.786-24.206 1.732 0 3.248 0.216 4.978 0.432 15.801 2.378 26.624 17.508 23.808 33.283z" />
<glyph unicode="&#xe92e;" glyph-name="premium-pricing" d="M224 6.9c35.343 0 64 28.646 64 64 0 35.342-28.657 64-64 64s-64-28.658-64-64c0-35.354 28.657-64 64-64zM224 102.9c17.673 0 32-14.331 32-32 0-17.674-14.327-32-32-32s-32 14.326-32 32c0 17.669 14.327 32 32 32zM928-25.1v584.747l-416 266.243-358.992-229.75-8.516 64c18.084 10.621 32.216 26.842 40.258 46.211l327.25 209.54 487.376-311.908 17.249 26.914-504.625 322.992-320.29-205.041c-3.070 98.051-80.046 192.223-83.39 196.254l-12.32 14.896-12.304-14.93c-3.456-4.14-83.696-102.578-83.696-202.17 0.026-16.73 4.424-33.162 12.757-47.669s20.313-26.583 34.751-35.033l-31.368-235.206-0.14-482.092h32v464h96v-193.43l-25.25-14.57h-38.75v-256h768v256h-34.446l-43.375 161.343-34.179-9.155v231.81h-448v-286.288l-112-64.672v190.961l-18.352 138.22 354.352 226.789 384-245.767v-599.24h128v32h-96zM50.274 438.9l27.966 209.708c11.729-2.282 23.787-2.282 35.516 0l27.968-209.712-91.45 0.003zM112 681.17v61.727h-32v-61.727c-28.172 7.274-47.89 32.631-48 61.727 0 65.913 42.414 134.609 64 165.297 21.632-30.594 64-99.046 64-165.296-0.11-29.094-19.828-54.455-48-61.728zM496-25.103h-128v192h128v-192zM656-25.103h-128v192h128v-192zM816 166.897v-192h-128v192h128zM747.587 321.051l32.828-122.155h-488.54l455.712 122.155zM528 550.9h176v-154.305l-60.704 105.117-115.296-66.562v115.75zM320 550.9h176v-128h-176v128zM320 390.9h131.328l-131.328-75.831v75.831zM631.586 457.999l67.454-116.796-503.728-135.079 436.273 251.875zM336 166.9v-192h-224v192h224z" />
<glyph unicode="&#xe92f;" glyph-name="project-planning" d="M48.134-33.999c-10.016 0-18.134 8.118-18.134 18.132v283.2h150.668c83.212 0 150.666-67.456 150.666-150.666v-150.666h-283.199zM0-15.867c0-26.583 21.55-48.133 48.134-48.133h298.198c8.284 0 15.002 6.715 15.002 14.999v165.668c0 99.779-80.886 180.667-180.666 180.667h-165.667c-8.284 0-15-6.717-15-15.002v-298.199zM133.050 547.412c0-8.284 6.716-14.999 15-14.999h32.098c8.284 0 15 6.715 15 14.999s-6.716 14.999-15 14.999h-32.098c-8.284 0-15-6.715-15-14.999zM99.4 613.676c0-8.284 6.716-15.002 15-15.002h65.75c8.284 0 15 6.717 15 15.002s-6.716 14.999-15 14.999h-65.75c-8.284 0-15-6.715-15-14.999zM99.4 481.137c0-8.284 6.716-14.999 15-14.999h65.75c8.284 0 15 6.715 15 14.999s-6.716 15.002-15 15.002h-65.75c-8.284 0-15-6.717-15-15.002zM133.050 414.876c0-8.287 6.716-15.002 15-15.002h32.098c8.284 0 15 6.715 15 15.002 0 8.284-6.716 14.999-15 14.999h-32.098c-8.284 0-15-6.715-15-14.999zM99.4 348.605c0-8.284 6.716-14.999 15-14.999h65.75c8.284 0 15 6.715 15 14.999s-6.716 15.002-15 15.002h-65.75c-8.284 0-15-6.717-15-15.002zM133.050 679.939c0-8.284 6.716-15.002 15-15.002h32.098c8.284 0 15 6.717 15 15.002s-6.716 14.999-15 14.999h-32.098c-8.284 0-15-6.715-15-14.999zM99.4 746.2c0-8.284 6.716-15 15-15h65.75c8.284 0 15 6.716 15 15s-6.716 15-15 15h-65.75c-8.284 0-15-6.716-15-15zM133.050 812.462c0-8.284 6.716-15 15-15h32.098c8.284 0 15 6.716 15 15s-6.716 15-15 15h-32.098c-8.284 0-15-6.716-15-15zM99.4 878.725c0-8.284 6.716-15 15-15h65.75c8.284 0 15 6.716 15 15s-6.716 15-15 15h-65.75c-8.284 0-15-6.716-15-15zM0 282.332c0-8.284 6.716-15.002 15-15.002h165.665c8.284 0 15 6.717 15 15.002v646.663c0 8.222-3.266 16.107-9.080 21.92s-13.699 9.080-21.92 9.080h-133.666c-8.222 0-16.107-3.266-21.92-9.080s-9.080-13.699-9.080-21.92v-152.792c0-8.284 6.716-15 15-15s15 6.716 15 15v152.792c0 0.265 0.105 0.52 0.293 0.707s0.442 0.293 0.707 0.293h133.666c0.265 0 0.519-0.105 0.707-0.293s0.293-0.442 0.293-0.707v-631.664h-135.666v418.875c0 8.284-6.716 15-15 15s-15-6.716-15-15v-433.874zM743.926 69.051c8.284 0 14.999 6.715 14.999 14.999v32.097c0 8.284-6.715 15.002-14.999 15.002s-15.002-6.717-15.002-15.002v-32.097c0-8.284 6.717-14.999 15.002-14.999zM677.65 35.4c8.284 0 14.999 6.715 14.999 14.999v65.751c0 8.284-6.715 14.999-14.999 14.999s-14.999-6.715-14.999-14.999v-65.751c0-8.284 6.715-14.999 14.999-14.999zM810.199 35.4c8.284 0 15.002 6.715 15.002 14.999v65.751c0 8.284-6.717 14.999-15.002 14.999s-14.999-6.715-14.999-14.999v-65.751c0-8.284 6.715-14.999 14.999-14.999zM876.449 69.051c8.284 0 15.002 6.715 15.002 14.999v32.097c0 8.284-6.717 15.002-15.002 15.002s-14.999-6.717-14.999-15.002v-32.097c0-8.284 6.715-14.999 14.999-14.999zM942.725 35.4c8.284 0 14.999 6.715 14.999 14.999v65.751c0 8.284-6.715 14.999-14.999 14.999s-14.999-6.715-14.999-14.999v-65.751c0-8.284 6.715-14.999 14.999-14.999zM611.4 69.051c8.284 0 14.999 6.715 14.999 14.999v32.097c0 8.284-6.715 15.002-14.999 15.002s-14.999-6.717-14.999-15.002v-32.097c0-8.284 6.715-14.999 14.999-14.999zM545.124 35.4c8.284 0 15.002 6.715 15.002 14.999v65.751c0 8.284-6.717 14.999-15.002 14.999s-14.999-6.715-14.999-14.999v-65.751c0-8.284 6.715-14.999 14.999-14.999zM478.876 69.051c8.284 0 14.999 6.715 14.999 14.999v32.097c0 8.284-6.715 15.002-14.999 15.002-8.287 0-15.002-6.717-15.002-15.002v-32.097c0-8.284 6.715-14.999 15.002-14.999zM412.6 35.4c8.284 0 14.999 6.715 14.999 14.999v65.751c0 8.284-6.715 14.999-14.999 14.999s-15.002-6.715-15.002-14.999v-65.751c0-8.284 6.717-14.999 15.002-14.999zM331.325-49.001c0-8.284 6.715-14.999 14.999-14.999h646.664c8.223 0 16.108 3.267 21.921 9.080s9.080 13.699 9.080 21.919v133.665c0 8.223-3.267 16.108-9.080 21.921s-13.699 9.080-21.921 9.080h-646.664c-8.284 0-14.999-6.717-14.999-15.002v-165.665zM361.326-33.999v135.665h631.662c0.266 0 0.52-0.105 0.709-0.292 0.187-0.189 0.292-0.443 0.292-0.709v-133.665c0-0.264-0.105-0.52-0.292-0.707-0.189-0.187-0.443-0.292-0.709-0.292h-631.662zM132.525 116.669c0-26.583 21.55-48.133 48.134-48.133 26.582 0 48.132 21.55 48.132 48.133s-21.55 48.131-48.132 48.131c-26.584 0-48.134-21.548-48.134-48.131zM180.659 98.537c-10.016 0-18.134 8.12-18.134 18.132s8.118 18.132 18.134 18.132c10.014 0 18.132-8.118 18.132-18.132s-8.118-18.132-18.132-18.132zM66.275 116.669c0-63.183 51.217-114.401 114.398-114.401 63.182 0 114.401 51.218 114.401 114.401 0 63.178-51.219 114.396-114.401 114.396-63.18 0-114.398-51.218-114.398-114.396zM180.673 32.269c-46.611 0-84.398 37.786-84.398 84.401 0 46.61 37.786 84.396 84.398 84.396 46.614 0 84.4-37.786 84.4-84.396 0-46.615-37.786-84.401-84.4-84.401zM596.401 945c0-8.284 6.715-15 14.999-15h66.266c8.284 0 15.002 6.716 15.002 15s-6.717 15-15.002 15h-66.266c-8.284 0-14.999-6.716-14.999-15zM596.401 182.932c0-8.287 6.715-15.002 14.999-15.002h66.266c8.284 0 15.002 6.715 15.002 15.002 0 8.284-6.717 14.999-15.002 14.999h-66.266c-8.284 0-14.999-6.715-14.999-14.999zM644.526 167.931c8.284 0 14.999 6.715 14.999 15.002v762.062c0 8.284-6.715 15-14.999 15s-15.002-6.716-15.002-15v-762.062c0-8.287 6.717-15.002 15.002-15.002zM629.524 249.201c0-8.284 6.717-15.002 15.002-15.002h85.967c8.284 0 14.999 6.717 14.999 15.002s-6.715 14.999-14.999 14.999h-85.967c-8.284 0-15.002-6.715-15.002-14.999zM775.493 249.201c0-8.284 6.715-15.002 14.999-15.002h85.967c8.284 0 14.999 6.717 14.999 15.002v364.465c0 8.284-6.715 14.999-14.999 14.999h-231.933c-8.284 0-15.002-6.715-15.002-14.999s6.717-14.999 15.002-14.999h216.932v-334.467h-70.966c-8.284 0-14.999-6.715-14.999-14.999zM629.524 613.663c0-8.284 6.717-14.999 15.002-14.999h298.199c6.228 0 11.809 3.848 14.021 9.669 2.214 5.819 0.599 12.403-4.055 16.54l-298.202 265.068c-6.19 5.504-15.672 4.946-21.176-1.246s-4.946-15.673 1.247-21.177l268.713-238.857h-258.747c-8.284 0-15.002-6.715-15.002-14.999zM607.014 845.379c5.504-6.192 14.984-6.75 21.176-1.246l26.312 23.388c6.193 5.504 6.751 14.985 1.247 21.177s-14.986 6.75-21.176 1.246l-26.314-23.388c-6.19-5.504-6.748-14.985-1.244-21.177zM387.564 650.309c5.504-6.19 14.986-6.748 21.176-1.244l19.205 17.070c6.193 5.504 6.751 14.986 1.247 21.176-5.504 6.193-14.986 6.751-21.176 1.247l-19.205-17.073c-6.193-5.504-6.751-14.984-1.247-21.176zM451.958 707.55c5.504-6.192 14.986-6.75 21.176-1.245l38.413 34.143c6.19 5.504 6.748 14.985 1.244 21.177s-14.984 6.749-21.176 1.245l-38.41-34.143c-6.193-5.504-6.751-14.985-1.247-21.177zM535.557 781.862c5.504-6.192 14.986-6.749 21.179-1.246l19.205 17.072c6.19 5.504 6.748 14.985 1.244 21.177s-14.984 6.749-21.176 1.246l-19.205-17.072c-6.193-5.504-6.748-14.985-1.247-21.177zM332.306 608.333c2.212-5.821 7.793-9.669 14.019-9.669h35.205c8.284 0 14.999 6.715 14.999 14.999 0 7.153-5.005 13.135-11.704 14.636 4.009 5.573 3.776 13.371-0.975 18.719-5.504 6.19-14.986 6.748-21.176 1.244l-26.312-23.388c-4.657-4.137-6.269-10.719-4.055-16.54zM446.474 613.663c0-8.284 6.717-14.999 15.002-14.999h24.788c8.284 0 14.999 6.715 14.999 14.999s-6.715 14.999-14.999 14.999h-24.788c-8.284 0-15.002-6.715-15.002-14.999zM529.587 613.663c0-8.284 6.717-14.999 15.002-14.999h24.788c8.284 0 14.999 6.715 14.999 14.999s-6.715 14.999-14.999 14.999h-24.788c-8.284 0-15.002-6.715-15.002-14.999zM594.324 613.663c0-8.284 6.717-14.999 15.002-14.999h35.203c8.284 0 14.999 6.715 14.999 14.999s-6.715 14.999-14.999 14.999h-35.203c-8.284 0-15.002-6.715-15.002-14.999zM586.051 249.201c0-8.284 6.715-15.002 14.999-15.002h43.489c8.284 0 14.999 6.717 14.999 15.002s-6.715 14.999-14.999 14.999h-43.489c-8.284 0-14.999-6.715-14.999-14.999zM466.299 249.201c0-8.284 6.717-15.002 15.002-15.002h16.177c8.284 0 14.999 6.717 14.999 15.002s-6.715 14.999-14.999 14.999h-16.177c-8.284 0-15.002-6.715-15.002-14.999zM519.452 249.201c0-8.284 6.715-15.002 14.999-15.002h16.177c8.284 0 14.999 6.717 14.999 15.002s-6.715 14.999-14.999 14.999h-16.177c-8.284 0-14.999-6.715-14.999-14.999zM397.599 249.201c0-8.284 6.717-15.002 15.002-15.002h43.487c8.284 0 15.002 6.717 15.002 15.002s-6.717 14.999-15.002 14.999h-28.488v28.488c0 8.284-6.715 15.002-14.999 15.002s-15.002-6.717-15.002-15.002v-43.487zM412.6 356.918c8.284 0 14.999 6.717 14.999 15.002v25.418c0 8.284-6.715 15.002-14.999 15.002s-15.002-6.717-15.002-15.002v-25.418c0-8.284 6.717-15.002 15.002-15.002zM412.6 440.443c8.284 0 14.999 6.715 14.999 14.999v25.421c0 8.284-6.715 14.999-14.999 14.999s-15.002-6.715-15.002-14.999v-25.421c0-8.284 6.717-14.999 15.002-14.999zM412.6 505.482c8.284 0 14.999 6.715 14.999 14.999v43.487c0 8.284-6.715 15.002-14.999 15.002s-15.002-6.717-15.002-15.002v-43.487c0-8.284 6.717-14.999 15.002-14.999z" />
<glyph unicode="&#xe930;" glyph-name="quote-1" d="M753.912 471.631l-25.236 4.285-5.076-29.885h30.313v25.6zM997.745 928.259h25.6v26.535l-26.519-0.952 0.919-25.584zM997.745 754.844l1.385-25.562 24.215 1.314v24.249h-25.6zM821.056 669.609v0zM725.322 458.115v0zM738.317 440.123v25.6h-0.018l0.018-25.6zM202.518 471.631l-25.239 4.285-5.075-29.885h30.313v25.6zM446.359 928.259h25.6v26.535l-26.519-0.952 0.919-25.584zM446.359 754.844l1.388-25.562 24.212 1.314v24.249h-25.6zM269.665 669.609v0zM173.928 458.115v0zM186.922 440.123l-0.002-25.6h0.002v25.6zM603.896-89.6h367.59v51.2h-367.59v-51.2zM971.487-89.6c47.268 0 78.113 44.298 78.113 88.614h-51.2c0-25.175-16.269-37.414-26.913-37.414v-51.2zM1049.6-0.986v409.6h-51.2v-409.6h51.2zM1049.6 408.614c0 44.319-30.845 88.617-78.113 88.617v-51.2c10.644 0 26.913-12.239 26.913-37.417h51.2zM971.487 497.231h-217.574v-51.2h217.574v51.2zM779.151 467.346c23.114 136.115 122.985 230.746 231.721 230.746v51.201c-140.211 0-256.097-119.665-282.196-273.375l50.476-8.571zM1010.872 698.092c11.935 0 22.198 5.727 28.948 13.826l-39.332 32.777c1.825 2.192 5.412 4.597 10.383 4.597v-51.201zM1039.821 711.918c6.638 7.965 9.779 17.917 9.779 27.528h-51.2c0 1.255 0.376 3.194 2.089 5.249l39.332-32.777zM1049.6 739.446v204.8h-51.2v-204.8h51.2zM1049.6 944.246c0 9.611-3.141 19.564-9.779 27.528l-39.332-32.777c-1.713 2.056-2.089 3.994-2.089 5.249h51.2zM1039.821 971.774c-6.751 8.101-17.014 13.826-28.948 13.826v-51.2c-4.972 0-8.558 2.405-10.383 4.597l39.332 32.777zM1010.872 985.6c-271.672 0-485.087-263.381-485.087-576.986h51.2c0 294.464 198.835 525.786 433.887 525.786v51.2zM525.786 408.614v-409.6h51.2v409.6h-51.2zM525.786-0.986c0-44.316 30.845-88.614 78.111-88.614v51.2c-10.644 0-26.911 12.239-26.911 37.414h-51.2zM603.241 408.614c0 271.895 180.262 486.34 395.42 494.061l-1.836 51.167c-250.522-8.99-444.785-254.33-444.785-545.228h51.2zM972.145 928.259v-173.415h51.2v173.415h-51.2zM996.357 780.406c-72.387-3.928-140.657-37.251-193.846-93.151l37.092-35.292c45.079 47.375 101.42 74.166 159.526 77.319l-2.772 51.125zM802.509 687.255c-56.128-58.993-92.244-139.389-102.605-226.104l50.839-6.075c9.178 76.818 41.055 146.644 88.86 196.887l-37.094 35.292zM699.907 461.169c-0.632-5.261-0.323-10.634 0.947-15.816l49.733 12.163c0.207-0.847 0.248-1.667 0.154-2.455l-50.834 6.108zM700.854 445.353c1.265-5.181 3.51-10.248 6.787-14.787l41.508 29.978c0.814-1.126 1.231-2.184 1.439-3.028l-49.733-12.163zM707.64 430.566c3.284-4.547 7.621-8.571 12.928-11.479l24.589 44.91c1.884-1.032 3.172-2.319 3.991-3.453l-41.508-29.978zM720.568 419.087c5.343-2.924 11.42-4.57 17.769-4.564l-0.038 51.2c2.583 0.003 4.941-0.676 6.858-1.725l-24.589-44.91zM738.317 414.523h233.17v51.2h-233.17v-51.2zM971.487 414.523c-1.536 0-1.807 0.809-1.108-0.028 0.737-0.883 1.766-2.89 1.766-5.88h51.2c0 26.944-19.069 57.108-51.858 57.108v-51.2zM972.145 408.614v-409.6h51.2v409.6h-51.2zM972.145-0.986c0-2.99-1.029-4.995-1.766-5.88-0.699-0.837-0.428-0.026 1.108-0.026v-51.2c32.788 0 51.858 30.164 51.858 57.106h-51.2zM971.487-6.892h-367.59v-51.2h367.59v51.2zM603.896-6.892c1.536 0 1.807-0.812 1.111 0.026-0.737 0.886-1.766 2.89-1.766 5.88h-51.2c0-26.941 19.067-57.106 51.855-57.106v51.2zM603.241-0.986v409.6h-51.2v-409.6h51.2zM52.513-89.6h367.591v51.2h-367.591v-51.2zM420.104-89.6c47.265 0 78.111 44.298 78.111 88.614h-51.2c0-25.175-16.266-37.414-26.911-37.414v-51.2zM498.214-0.986v409.6h-51.2v-409.6h51.2zM498.214 408.614c0 44.319-30.845 88.617-78.111 88.617v-51.2c10.644 0 26.911-12.239 26.911-37.417h51.2zM420.104 497.231h-217.585v-51.2h217.585v51.2zM227.757 467.346c23.113 136.113 122.986 230.746 231.73 230.746v51.201c-140.219 0-256.105-119.663-282.207-273.375l50.477-8.571zM459.487 698.092c11.935 0 22.2 5.727 28.951 13.826l-39.334 32.777c1.828 2.192 5.412 4.597 10.383 4.597v-51.201zM488.438 711.918c6.636 7.964 9.777 17.917 9.777 27.528h-51.2c0 1.255 0.376 3.194 2.089 5.249l39.334-32.777zM498.214 739.446v204.8h-51.2v-204.8h51.2zM498.214 944.246c0 9.612-3.141 19.564-9.777 27.528l-39.334-32.777c-1.713 2.056-2.089 3.994-2.089 5.249h51.2zM488.438 971.774c-6.751 8.101-17.016 13.826-28.951 13.826v-51.2c-4.972 0-8.556 2.405-10.383 4.597l39.334 32.777zM459.487 985.6c-271.671 0-485.087-263.381-485.087-576.986h51.2c0 294.464 198.836 525.786 433.887 525.786v51.2zM-25.6 408.614v-409.6h51.2v409.6h-51.2zM-25.6-0.986c0-44.314 30.843-88.614 78.113-88.614v51.2c-10.647 0-26.913 12.237-26.913 37.414h-51.2zM51.856 408.614c0 271.895 180.263 486.34 395.422 494.061l-1.838 51.167c-250.52-8.99-444.784-254.33-444.784-545.228h51.2zM420.759 928.259v-173.415h51.2v173.415h-51.2zM444.972 780.406c-72.387-3.927-140.659-37.25-193.851-93.149l37.092-35.295c45.082 47.378 101.422 74.166 159.534 77.319l-2.775 51.125zM251.12 687.255c-56.132-58.993-92.251-139.389-102.612-226.104l50.838-6.075c9.179 76.818 41.059 146.642 88.866 196.887l-37.092 35.292zM148.509 461.153c-0.628-5.258-0.315-10.629 0.953-15.808l49.731 12.178c0.207-0.845 0.248-1.661 0.154-2.447l-50.838 6.077zM149.462 445.345c1.268-5.176 3.51-10.237 6.787-14.776l41.506 29.98c0.813-1.126 1.231-2.181 1.437-3.026l-49.731-12.178zM156.249 430.569c3.282-4.544 7.614-8.566 12.918-11.474l24.604 44.902c1.881-1.032 3.166-2.317 3.983-3.448l-41.506-29.98zM169.167 419.095c5.336-2.924 11.409-4.572 17.753-4.572l0.004 51.2c2.581 0 4.934-0.678 6.848-1.725l-24.604-44.902zM186.922 414.523h233.182v51.2h-233.182v-51.2zM420.104 414.523c-1.536 0-1.807 0.809-1.111-0.028 0.737-0.883 1.766-2.89 1.766-5.88h51.2c0 26.944-19.069 57.108-51.855 57.108v-51.2zM420.759 408.614v-409.6h51.2v409.6h-51.2zM420.759-0.986c0-2.99-1.029-4.995-1.766-5.88-0.696-0.837-0.425-0.026 1.111-0.026v-51.2c32.786 0 51.855 30.164 51.855 57.106h-51.2zM420.104-6.892h-367.591v-51.2h367.591v51.2zM52.513-6.892c1.535 0 1.807-0.812 1.109 0.026-0.738 0.886-1.766 2.89-1.766 5.88h-51.2c0-26.941 19.068-57.106 51.856-57.106v51.2zM51.856-0.986v409.6h-51.2v-409.6h51.2z" />
<glyph unicode="&#xe931;" glyph-name="quote-2" d="M270.088 424.369l25.236-4.285 5.076 29.885h-30.313v-25.6zM26.256-32.259h-25.6v-26.537l26.518 0.952-0.918 25.585zM26.256 141.156l-1.387 25.562-24.213-1.313v-24.248h25.6zM202.944 226.391v0zM298.678 437.885v0zM285.683 455.877v-25.6h0.018l-0.018 25.6zM821.481 424.369l25.239-4.285 5.076 29.885h-30.316v-25.6zM577.641-32.259h-25.6v-26.537l26.519 0.952-0.919 25.585zM577.641 141.156l-1.388 25.562-24.212-1.313v-24.248h25.6zM754.335 226.391v0zM850.071 437.885v0zM837.079 455.877v0zM420.104 985.6h-367.591v-51.2h367.591v51.2zM52.513 985.6c-47.266 0-78.113-44.299-78.113-88.615h51.2c0 25.177 16.268 37.415 26.913 37.415v51.2zM-25.6 896.985v-409.599h51.2v409.599h-51.2zM-25.6 487.386c0-44.319 30.847-88.617 78.113-88.617v51.2c-10.645 0-26.913 12.239-26.913 37.417h-51.2zM52.513 398.769h217.575v51.2h-217.575v-51.2zM244.848 428.654c-23.113-136.115-122.983-230.746-231.72-230.746v-51.2c140.211 0 256.097 119.665 282.196 273.375l-50.476 8.571zM13.128 197.908c-11.935 0-22.199-5.727-28.95-13.827l39.333-32.778c-1.826-2.191-5.413-4.595-10.383-4.595v51.2zM-15.821 184.082c-6.637-7.964-9.779-17.917-9.779-27.528h51.2c0-1.254-0.375-3.195-2.088-5.251l-39.333 32.778zM-25.6 156.554v-204.8h51.2v204.8h-51.2zM-25.6-48.246c0-9.613 3.142-19.564 9.779-27.528l39.333 32.776c1.713-2.056 2.088-3.994 2.088-5.248h-51.2zM-15.821-75.773c6.75-8.102 17.015-13.827 28.95-13.827v51.2c4.971 0 8.557-2.406 10.383-4.598l-39.333-32.776zM13.128-89.6c271.672 0 485.086 263.38 485.086 576.986h-51.2c0-294.464-198.835-525.786-433.886-525.786v-51.2zM498.214 487.386v409.599h-51.2v-409.599h51.2zM498.214 896.985c0 44.317-30.845 88.615-78.111 88.615v-51.2c10.644 0 26.911-12.239 26.911-37.415h51.2zM420.759 487.386c0-271.895-180.263-486.341-395.421-494.062l1.836-51.167c250.522 8.991 444.785 254.331 444.785 545.229h-51.2zM51.856-32.259v173.414h-51.2v-173.414h51.2zM27.643 115.594c72.386 3.927 140.657 37.251 193.846 93.151l-37.092 35.292c-45.080-47.375-101.42-74.166-159.528-77.32l2.774-51.123zM221.49 208.745c56.129 58.993 92.246 139.389 102.606 226.104l-50.839 6.075c-9.178-76.818-41.055-146.644-88.86-196.887l37.093-35.292zM324.093 434.831c0.632 5.261 0.323 10.634-0.947 15.816l-49.733-12.163c-0.207 0.847-0.248 1.667-0.154 2.455l50.834-6.108zM323.146 450.647c-1.265 5.181-3.51 10.248-6.787 14.787l-41.508-29.978c-0.814 1.126-1.231 2.184-1.439 3.028l49.733 12.163zM316.36 465.434c-3.284 4.547-7.621 8.571-12.928 11.479l-24.589-44.91c-1.884 1.032-3.172 2.319-3.991 3.453l41.508 29.978zM303.432 476.913c-5.343 2.924-11.42 4.57-17.769 4.564l0.038-51.2c-2.583-0.003-4.941 0.676-6.858 1.725l24.589 44.91zM285.683 481.477h-233.17v-51.2h233.17v51.2zM52.513 481.477c1.535 0 1.807-0.809 1.109 0.028-0.738 0.883-1.766 2.89-1.766 5.88h-51.2c0-26.944 19.068-57.108 51.856-57.108v51.2zM51.856 487.386v409.599h-51.2v-409.599h51.2zM51.856 896.985c0 2.99 1.028 4.995 1.766 5.88 0.698 0.837 0.426 0.028-1.109 0.028v51.2c-32.788 0-51.856-30.165-51.856-57.108h51.2zM52.513 902.892h367.591v51.2h-367.591v-51.2zM420.104 902.892c-1.536 0-1.807 0.81-1.111-0.028 0.737-0.885 1.766-2.89 1.766-5.88h51.2c0 26.943-19.067 57.108-51.855 57.108v-51.2zM420.759 896.985v-409.599h51.2v409.599h-51.2zM971.487 985.6h-367.59v-51.2h367.59v51.2zM603.896 985.6c-47.265 0-78.111-44.299-78.111-88.615h51.2c0 25.177 16.266 37.415 26.911 37.415v51.2zM525.786 896.985v-409.599h51.2v409.599h-51.2zM525.786 487.386c0-44.319 30.845-88.617 78.111-88.617v51.2c-10.644 0-26.911 12.239-26.911 37.417h-51.2zM603.896 398.769h217.585v51.2h-217.585v-51.2zM796.242 428.654c-23.112-136.113-122.985-230.746-231.729-230.746v-51.2c140.219 0 256.105 119.662 282.207 273.375l-50.478 8.571zM564.513 197.908c-11.935 0-22.2-5.727-28.951-13.827l39.334-32.778c-1.828-2.191-5.412-4.595-10.383-4.595v51.2zM535.562 184.082c-6.636-7.964-9.777-17.917-9.777-27.528h51.2c0-1.254-0.376-3.195-2.089-5.251l-39.334 32.778zM525.786 156.554v-204.8h51.2v204.8h-51.2zM525.786-48.246c0-9.613 3.141-19.564 9.777-27.528l39.334 32.776c1.713-2.056 2.089-3.994 2.089-5.248h-51.2zM535.562-75.773c6.751-8.102 17.016-13.827 28.951-13.827v51.2c4.972 0 8.556-2.406 10.383-4.598l-39.334-32.776zM564.513-89.6c271.672 0 485.087 263.38 485.087 576.986h-51.2c0-294.464-198.838-525.786-433.887-525.786v-51.2zM1049.6 487.386v409.599h-51.2v-409.599h51.2zM1049.6 896.985c0 44.316-30.843 88.615-78.113 88.615v-51.2c10.647 0 26.913-12.238 26.913-37.415h51.2zM972.145 487.386c0-271.895-180.265-486.341-395.423-494.062l1.838-51.167c250.519 8.991 444.785 254.331 444.785 545.229h-51.2zM603.241-32.259v173.414h-51.2v-173.414h51.2zM579.028 115.594c72.387 3.927 140.659 37.251 193.851 93.148l-37.092 35.295c-45.082-47.378-101.422-74.166-159.534-77.32l2.775-51.123zM772.879 208.745c56.133 58.993 92.25 139.389 102.612 226.104l-50.839 6.075c-9.178-76.818-41.057-146.642-88.865-196.887l37.092-35.292zM875.492 434.847c0.627 5.258 0.315 10.629-0.955 15.808l-49.731-12.178c-0.207 0.845-0.248 1.661-0.154 2.447l50.839-6.077zM874.537 450.655c-1.267 5.176-3.51 10.237-6.787 14.776l-41.505-29.98c-0.814 1.126-1.231 2.181-1.439 3.026l49.731 12.178zM867.75 465.431c-3.282 4.544-7.613 8.566-12.918 11.474l-24.604-44.902c-1.882 1.032-3.167 2.317-3.983 3.448l41.505 29.98zM854.833 476.905c-5.335 2.924-11.407 4.572-17.754 4.572l-0.003-51.2c-2.58 0-4.936 0.678-6.848 1.725l24.604 44.902zM837.079 481.477h-233.183v-51.2h233.183v51.2zM603.896 481.477c1.536 0 1.807-0.809 1.111 0.028-0.737 0.883-1.766 2.89-1.766 5.88h-51.2c0-26.944 19.069-57.108 51.855-57.108v51.2zM603.241 487.386v409.599h-51.2v-409.599h51.2zM603.241 896.985c0 2.99 1.029 4.995 1.766 5.88 0.696 0.837 0.425 0.028-1.111 0.028v51.2c-32.786 0-51.855-30.165-51.855-57.108h51.2zM603.896 902.892h367.59v51.2h-367.59v-51.2zM971.487 902.892c-1.536 0-1.807 0.81-1.108-0.027 0.737-0.885 1.766-2.89 1.766-5.88h51.2c0 26.943-19.069 57.108-51.858 57.108v-51.2zM972.145 896.985v-409.599h51.2v409.599h-51.2z" />
<glyph unicode="&#xe932;" glyph-name="service-architecture" d="M442.812 312.627h406.125c17.12 0.017 33.533 6.823 45.64 18.929 12.105 12.104 18.917 28.515 18.935 45.635v183.615h80.396c11.827 0 22.286 7.463 27.252 19.47 5.376 12.966 2.97 27.699-5.939 36.608l-326.985 329.344c-17.818 17.792-46.285 18.33-63.551 1.114l-326.832-331.009c-8.883-8.909-11.315-23.424-6.054-36.122 4.966-11.981 15.423-19.391 27.327-19.391h59.097v-183.617c0.020-17.121 6.832-33.538 18.941-45.643 12.109-12.107 28.525-18.915 45.648-18.932zM699.947 351.514h-90.738v148.338c0 3.572 2.906 6.477 6.477 6.477h77.773c3.57 0 6.477-2.905 6.477-6.477l0.012-148.338zM874.614 377.19c-0.014-6.808-2.724-13.332-7.54-18.145s-11.341-7.521-18.149-7.532h-110.104v148.338c-0.014 12.027-4.797 23.559-13.302 32.063s-20.035 13.288-32.061 13.3h-77.773c-12.027-0.012-23.557-4.796-32.060-13.3-8.504-8.504-13.288-20.036-13.302-32.063v-148.326h-127.512c-6.811 0.007-13.341 2.714-18.159 7.526-4.818 4.815-7.53 11.341-7.543 18.15v197.082l238.346 240.41 223.165-223.169c-2.355-3.212-4.007-6.975-4.007-11.264v-203.071zM652.242 919.923c2.19 2.15 6.183 1.088 8.462-1.139l316.783-319.092h-52.057l-242.481 242.484c-7.030 6.993-16.541 10.918-26.457 10.918s-19.427-3.925-26.457-10.918l-242.468-242.484h-51.494l316.169 320.231zM24.627 960c-6.53-0.003-12.792-2.599-17.41-7.217s-7.213-10.88-7.217-17.41v-974.759c0-13.58 11.046-24.614 24.627-24.614h171.083c6.526 0.003 12.783 2.596 17.401 7.207 4.617 4.613 7.216 10.868 7.226 17.394v974.771c0 6.529-2.594 12.791-7.209 17.41-4.617 4.618-10.877 7.214-17.406 7.218h-171.095zM38.886-25.114v946.227h142.577v-90.739h-58.328c-2.553 0-5.082-0.503-7.441-1.48s-4.502-2.409-6.308-4.215c-1.805-1.805-3.238-3.949-4.215-6.308s-1.48-4.887-1.48-7.441c0-2.553 0.503-5.082 1.48-7.441s2.409-4.502 4.215-6.308c1.805-1.805 3.949-3.238 6.308-4.215s4.887-1.48 7.441-1.48h58.328v-64.806h-58.328c-5.157 0-10.102-2.048-13.748-5.695-3.646-3.645-5.695-8.591-5.695-13.749 0-5.156 2.049-10.102 5.695-13.747 3.646-3.647 8.592-5.695 13.748-5.695h58.328v-64.807h-58.328c-2.553 0-5.082-0.502-7.441-1.48-2.359-0.976-4.502-2.408-6.308-4.214s-3.238-3.949-4.215-6.308c-0.977-2.36-1.48-4.888-1.48-7.441s0.503-5.082 1.48-7.441c0.977-2.359 2.409-4.502 4.215-6.308s3.949-3.238 6.308-4.214c2.359-0.978 4.887-1.481 7.441-1.481h58.328v-64.806h-58.328c-2.553 0-5.082-0.503-7.441-1.48-2.359-0.978-4.502-2.41-6.308-4.215s-3.238-3.949-4.215-6.308c-0.977-2.359-1.48-4.886-1.48-7.441 0-2.553 0.503-5.081 1.48-7.439s2.409-4.502 4.215-6.308c1.805-1.806 3.949-3.238 6.308-4.215s4.887-1.48 7.441-1.48h58.328v-64.807h-58.328c-5.157 0-10.102-2.048-13.748-5.693-3.646-3.647-5.695-8.593-5.695-13.749 0-5.158 2.049-10.102 5.695-13.749 3.646-3.645 8.592-5.695 13.748-5.695h58.328v-64.806h-58.328c-5.157 0-10.102-2.048-13.748-5.695-3.646-3.645-5.695-8.591-5.695-13.749 0-5.156 2.049-10.102 5.695-13.747 3.646-3.647 8.592-5.695 13.748-5.695h58.328v-64.807h-58.328c-5.157 0-10.102-2.048-13.748-5.693-3.646-3.647-5.695-8.593-5.695-13.749 0-5.158 2.049-10.102 5.695-13.749 3.646-3.645 8.592-5.695 13.748-5.695h58.328v-64.806h-58.328c-5.157 0-10.102-2.048-13.748-5.695-3.646-3.645-5.695-8.591-5.695-13.749 0-5.156 2.049-10.102 5.695-13.747 3.646-3.647 8.592-5.695 13.748-5.695h58.328v-90.74l-142.577-0.012zM996.775 130.432h-512.544c-5.567 0-158.090-72.883-158.090-72.883-4.54-2.243-8.359-5.716-11.022-10.022s-4.065-9.274-4.045-14.338c0-10.38 5.774-19.698 15.053-24.332 0 0 152.549-72.858 158.104-72.858h512.544c7.216 0.007 14.133 2.876 19.236 7.977 5.101 5.103 7.97 12.020 7.977 19.236v139.981c-0.007 7.217-2.874 14.138-7.975 19.244s-12.020 7.98-19.238 7.994zM364.399 33.19l92.607 46.324v-92.634l-92.607 46.31zM495.892 91.546h394.044v-116.659h-394.044v116.659zM985.102-25.114h-56.281v116.659h56.281v-116.659z" />
<glyph unicode="&#xe933;" glyph-name="service-concept-design" d="M759.729-54.924h-511.212c-10.831 0-19.692 8.862-19.692 19.692v64.098c0 10.437 8.074 19.003 18.511 19.692 155.963 9.551 179.594 69.415 182.351 105.452h-336.738c-17.132 0-32.591 6.4-44.8 18.609s-18.609 27.668-18.609 44.8v593.034c0 17.132 6.4 32.689 18.609 44.8 12.209 12.209 27.668 18.609 44.8 18.609h238.769c10.831 0 19.692-8.862 19.692-19.692s-8.862-19.692-19.692-19.692h-238.769c-6.892 0-12.111-2.166-16.935-7.089-4.923-4.923-7.089-10.142-7.089-16.935v-592.936c0-6.794 2.166-12.111 7.089-16.935 4.923-4.923 10.142-7.089 17.034-7.089h822.449c6.794 0 12.111 2.166 17.034 7.089s7.089 10.142 7.089 16.935v592.936c0 6.892-2.166 12.111-7.089 16.935-4.923 4.923-10.142 7.089-17.034 7.089h-161.083c-10.831 0-19.692 8.862-19.692 19.692s8.862 19.692 19.692 19.692h161.083c17.132 0 32.689-6.4 44.8-18.609s18.609-27.668 18.609-44.8v-592.936c0-17.132-6.4-32.689-18.609-44.8-12.209-12.209-27.668-18.609-44.8-18.609h-341.76c4.628-36.431 31.705-96 187.372-105.452 10.437-0.591 18.511-9.255 18.511-19.692v-64.098c0-10.831-8.862-19.692-19.692-19.692l-0.197-0.098zM268.209-15.539h471.828v26.191c-128.098 11.618-197.218 59.766-205.883 143.36h-65.378c-4.431-61.932-46.375-129.182-200.566-143.36v-26.191zM538.683 222.442h-68.332c-10.831 0-19.692 8.862-19.692 19.692s8.862 19.692 19.692 19.692h68.332c10.831 0 19.692-8.862 19.692-19.692s-8.862-19.692-19.692-19.692zM874.24 290.578h-739.249c-10.831 0-19.692 8.862-19.692 19.692s8.862 19.692 19.692 19.692h739.249c10.831 0 19.692-8.862 19.692-19.692s-8.862-19.692-19.692-19.692zM503.828 349.261c-3.742 0-7.188 0.985-10.142 2.855l-77.391 44.702c-6.105 3.545-9.846 10.043-9.846 17.034v149.169c-15.557 9.058-28.455 16.542-38.4 22.252v-126.425c0-6.991-3.742-13.588-9.846-17.034-2.989-1.741-6.386-2.658-9.846-2.658s-6.857 0.918-9.846 2.658l-77.785 44.997c-6.105 3.545-9.846 10.043-9.846 17.034v160.689c0.197 10.831 8.96 19.692 19.791 19.692s19.692-8.862 19.692-19.692v-149.268l38.302-22.252v126.425c0 6.991 3.742 13.489 9.748 17.034s13.489 3.643 19.594 0.197c1.969-1.182 4.037-2.265 6.006-3.446 7.286-4.234 31.311-18.117 72.172-41.649 6.105-3.545 9.846-10.043 9.846-17.034v-149.169l38.203-22.154v101.218c0.098 10.831 8.96 19.692 19.791 19.692s19.692-8.862 19.692-19.692v-101.12l194.56 112.148v73.255c0 10.831 8.862 19.692 19.692 19.692s19.692-8.862 19.692-19.692v-84.677c0-6.991-3.742-13.588-9.846-17.034l-233.846-134.695c-2.954-1.772-6.4-2.757-10.142-2.757v-0.295zM871.778 406.959c-3.348 0-6.695 0.886-9.846 2.658l-73.058 42.142c-2.249 1.282-4.22 2.997-5.801 5.047-1.581 2.048-2.739 4.391-3.409 6.892-0.668 2.499-0.833 5.108-0.486 7.672 0.347 2.566 1.199 5.035 2.509 7.268 1.282 2.249 2.997 4.222 5.045 5.801 2.050 1.581 4.393 2.739 6.892 3.409 2.501 0.668 5.11 0.833 7.674 0.486 2.566-0.347 5.035-1.199 7.268-2.509l73.058-42.142c2.249-1.282 4.22-2.997 5.801-5.045 1.581-2.050 2.739-4.393 3.409-6.892 0.668-2.501 0.833-5.11 0.486-7.674s-1.199-5.035-2.509-7.268c-3.643-6.302-10.24-9.846-17.034-9.846zM136.862 406.959c-6.794 0-13.391 3.545-17.034 9.846-5.415 9.452-2.166 21.465 7.188 26.88l73.058 42.142c9.452 5.415 21.465 2.166 26.88-7.188 5.415-9.452 2.166-21.465-7.188-26.88l-73.058-42.142c-2.992-1.733-6.388-2.651-9.846-2.658zM538.092 531.021c-6.597 0-13.095 3.348-16.738 9.354l-147.2 238.474-124.948-72.074c-9.452-5.415-21.465-2.166-26.88 7.188-5.415 9.452-2.166 21.465 7.188 26.88l375.335 216.517c9.255 5.317 21.071 2.363 26.585-6.695l156.948-254.917c1.376-2.245 2.292-4.742 2.698-7.345 0.406-2.601 0.291-5.26-0.335-7.818-0.644-2.552-1.796-4.949-3.385-7.046-1.591-2.097-3.588-3.854-5.87-5.163l-233.452-134.794c-2.991-1.733-6.388-2.651-9.846-2.658l-0.098 0.098zM408.222 798.541l136.566-221.243 199.385 115.102-136.369 221.342-199.582-115.2z" />
<glyph unicode="&#xe934;" glyph-name="service-design-planning" d="M149.334 789.642c-35.346 0-64-28.654-64-63.999v-170.667h42.666v170.667c0 11.781 9.552 21.333 21.334 21.333h512.002v42.666h-512.002zM149.334 149.639c-11.782 0-21.334 9.552-21.334 21.335v213.335h-42.666v-213.335c0-35.347 28.654-64.002 64-64.002h213.335v42.667h-213.335zM676.415 94.621l-518.105 518.103c-8.33 8.329-21.834 8.329-30.166 0l-121.899-121.9c-8.328-8.33-8.328-21.833 0-30.165l518.103-518.101c1.981-1.981 4.332-3.553 6.921-4.627 2.587-1.072 5.361-1.623 8.163-1.623s5.574 0.551 8.161 1.623c2.589 1.073 4.939 2.645 6.921 4.627l121.899 121.897c8.329 8.332 8.329 21.837 0.002 30.167zM539.433-12.196l-487.939 487.938 91.734 91.735 487.938-487.939-91.733-91.733zM938.667 149.642h-320v-42.667h234.667v-106.667c0-11.781 9.551-21.333 21.333-21.333h64c47.128 0 85.333 38.204 85.333 85.333s-38.205 85.333-85.333 85.333zM938.667 21.642h-42.667v85.333h42.667c23.564 0 42.667-19.103 42.667-42.667 0-23.566-19.103-42.667-42.667-42.667zM938.672 789.642h-106.665v-42.666h106.665c23.564 0 42.667-19.103 42.667-42.667v-640.002h42.667v640.002c0.002 47.128-38.204 85.333-85.333 85.333zM326.257 292.722l64.005 64.005 30.169-30.17-64.005-64.003-30.169 30.169zM240.925 378.057l64.005 64.005 30.17-30.17-64.007-64.007-30.169 30.172zM411.544 207.387l64.005 64.007 30.17-30.17-64.007-64.005-30.169 30.169zM496.916 122.011l64.005 64.007 30.169-30.17-64.005-64.005-30.169 30.169zM155.533 463.391l64.004 64.003 30.17-30.167-64.007-64.007-30.167 30.17zM920.177 912.353l-29.484 29.482c-24.946 23.814-64.207 23.814-89.153 0l-324.393-324.394c-8.329-8.33-8.329-21.833 0-30.165l88.47-88.47c1.975-1.988 4.325-3.565 6.914-4.637s5.366-1.621 8.168-1.613c5.656 0.002 11.081 2.249 15.082 6.25l324.425 324.426c24.602 24.618 24.588 64.52-0.029 89.122zM890.032 853.387l-309.333-309.333-58.305 58.305 309.335 309.312c3.878 3.706 9.035 5.774 14.399 5.774s10.522-2.068 14.401-5.774l29.513-29.472c7.951-7.958 7.948-20.858-0.010-28.812zM573.873 534.113l-92.075-30.742 30.742 92.223-40.535 13.505-44.245-132.714c-0.724-2.176-1.094-4.454-1.094-6.746 0.002-11.783 9.556-21.332 21.338-21.328 2.258-0.007 4.504 0.338 6.656 1.024l132.714 44.247-13.501 40.532zM742.567 852.701l30.169 30.17 88.472-88.47-30.169-30.169-88.472 88.469zM448 490.976h320v-42.667h-320v42.667zM810.667 490.976h42.665v-42.667h-42.665v42.667zM896 490.976h42.667v-42.667h-42.667v42.667z" />
<glyph unicode="&#xe935;" glyph-name="service-exterior-design" d="M945.989 400.661h-498.040v435.64l497.876-154.759v-280.881h0.164zM481.052 433.765h431.669v223.447l-431.669 134.069v-357.516zM464.504 400.661h-288.332v302.235h288.332v-33.103h-255.228v-236.028h255.228v-33.103zM192.72 669.79h-66.041v90.537h337.821v-33.103h-304.718v-24.331h32.938v-33.103zM945.989 348.19h-769.82v69.021h33.103v-35.918h703.613v35.918h33.103v-69.021zM1006.403-35.314h-997.076v97.49h996.91v-97.49h0.166zM42.431-2.21h930.703v31.283h-930.703v-31.283zM79.345 45.626h-33.103v335.669h146.482v-33.103h-113.379v-302.566zM447.952 364.744h33.103v-319.117h-33.103v319.117zM994.821 634.040l-601.821 186.869 10.757 111.393 596.524-174.785-5.461-123.477zM428.42 844.412l535.284-166.18 2.482 54.788-533.462 156.247-4.304-44.855zM420.8 29.076h-294.456v245.792h294.456v-245.792zM159.448 62.18h228.249v179.585h-228.249v-179.585zM831.613 33.875h-166.179v236.194h166.179v-236.194zM698.537 66.978h99.972v169.988h-99.972v-169.988zM852.635 417.213h-33.103v160.719h-241.987v-160.719h-33.103v193.822h308.194v-193.822zM404.249 417.213h-33.103v147.973h-92.36v-147.973h-33.103v181.077h158.566v-181.077zM912.884 364.745h33.103v-314.319h-33.103v314.319zM149.19 216.94h255.063v-33.103h-255.063v33.103zM149.19 167.285h255.063v-33.103h-255.063v33.103zM149.19 117.629h255.063v-33.103h-255.063v33.103z" />
<glyph unicode="&#xe936;" glyph-name="service-interior-decor" horiz-adv-x="922" d="M659.157 711.917c10.38 3.779 21.857-1.574 25.634-11.953l232.812-639.645c1.249-3.43 1.534-7.136 0.828-10.714l-19.246-97.478c-1.36-6.892-6.236-12.563-12.844-14.944-6.608-2.379-13.979-1.12-19.422 3.321l-77.848 63.531c-2.792 2.278-4.915 5.268-6.149 8.655l-204.467 561.768-204.465-561.768c-1.234-3.386-3.357-6.376-6.149-8.655l-77.848-63.531c-5.443-4.441-12.815-5.7-19.424-3.321-6.608 2.381-11.482 8.052-12.843 14.944l-19.246 97.478c-0.708 3.579-0.422 7.284 0.826 10.714l232.497 638.78c3.777 10.38 15.254 15.73 25.634 11.953 10.378-3.779 15.73-15.254 11.953-25.634l-230.589-633.539 11.713-59.319 47.77 38.984 219.634 603.44c3.335 9.161 12.669 14.406 21.951 12.913 8.325 0.176 16.207-4.9 19.214-13.16l219.544-603.192 47.77-38.984 11.713 59.319-230.905 634.404c-3.777 10.38 1.574 21.857 11.953 25.634zM578.439 793.087c-39.528 0-71.572-32.044-71.572-71.572s32.044-71.572 71.572-71.572c39.528 0 71.572 32.044 71.572 71.572s-32.044 71.572-71.572 71.572zM466.867 721.516c0 61.619 49.952 111.572 111.572 111.572s111.572-49.953 111.572-111.572c0-61.619-49.952-111.572-111.572-111.572s-111.572 49.952-111.572 111.572zM578.444 920c14.24 0 25.786-11.544 25.786-25.786v-86.472c0-11.046 8.955-19.999 20-19.999s20 8.954 20 19.999v86.472c0 36.334-29.455 65.786-65.787 65.786s-65.783-29.453-65.783-65.786v-86.47c0-11.046 8.953-20 19.999-20s20 8.954 20 20v86.47c0 14.243 11.544 25.786 25.784 25.786zM2.8 785.108c0 11.046 8.954 20 20 20h112c11.046 0 20-8.954 20-20v-190.594c0-11.046-8.954-20-20-20s-20 8.955-20 20v170.593h-72v-497.41h72v146.816c0 11.046 8.954 20 20 20s20-8.955 20-20v-166.815c0-2.599-0.506-5.173-1.491-7.578l-56-136.806c-3.076-7.514-10.39-12.423-18.509-12.423s-15.433 4.908-18.509 12.423l-56 136.806c-0.984 2.405-1.491 4.978-1.491 7.578v537.409zM105.002 227.698l-26.202-64.012-26.202 64.012h52.405zM578.444 407.25c11.046 0 20-8.955 20-20v-13.222h78.058c11.046 0 20-8.955 20-20s-8.955-19.999-20-19.999h-78.058v-13.225c0-11.046-8.955-20-20-20s-20 8.955-20 20v13.225h-78.056c-11.046 0-19.999 8.953-19.999 19.999s8.953 20 19.999 20h78.056v13.222c0 11.046 8.955 20 20 20zM277.175 354.028c0 11.046 8.953 20 19.999 20h63.831c11.046 0 20-8.955 20-20s-8.955-19.999-20-19.999h-63.831c-11.046 0-19.999 8.953-19.999 19.999zM775.887 354.028c0 11.046 8.953 20 19.999 20h63.831c11.046 0 20-8.955 20-20s-8.955-19.999-20-19.999h-63.831c-11.046 0-19.999 8.953-19.999 19.999z" />
<glyph unicode="&#xe937;" glyph-name="service-interior-design" d="M465.567-63.995h-30.72c-16.983 0.058-33.256 8.59-45.266 23.731-12.008 15.142-18.775 35.663-18.823 57.074v239.082c0.048 21.414 6.815 41.933 18.823 57.074 12.010 15.142 28.283 23.675 45.266 23.733h30.72c5.18-0.046 10.336-0.867 15.36-2.449 13.926-4.253 26.308-14.298 35.149-28.517 8.842-14.217 13.626-31.775 13.58-49.841v-239.082c-0.046-21.412-6.815-41.933-18.823-57.074s-28.283-23.673-45.266-23.731zM434.847 292.178c-3.779 0-7.521-0.939-11.013-2.761-3.492-1.824-6.663-4.497-9.335-7.866s-4.792-7.369-6.238-11.771c-1.447-4.403-2.191-9.122-2.191-13.887v-239.082c0-9.622 3.033-18.852 8.429-25.656s12.716-10.627 20.349-10.627h30.72c3.779 0 7.521 0.937 11.013 2.761s6.665 4.495 9.335 7.866c2.673 3.369 4.792 7.369 6.24 11.771 1.446 4.403 2.19 9.12 2.19 13.885v239.082c-0.010 8.103-2.171 15.969-6.139 22.344s-9.513 10.89-15.753 12.829c-2.289 0.312-4.598 0.312-6.886 0l-30.72 1.113zM959.911-63.995h-30.72c-16.983 0.058-33.256 8.59-45.266 23.731-12.008 15.142-18.775 35.663-18.821 57.074v239.082c-0.046 18.067 4.738 35.625 13.578 49.841 8.841 14.218 21.224 24.264 35.149 28.517 5.026 1.582 10.182 2.403 15.36 2.449h30.72c16.983-0.058 33.258-8.591 45.266-23.733 12.010-15.142 18.777-35.661 18.823-57.074v-239.082c-0.046-21.412-6.813-41.933-18.823-57.074-12.008-15.142-28.283-23.673-45.266-23.731zM929.191 292.178c-2.289 0.312-4.596 0.312-6.885 0-6.39-1.981-12.047-6.663-16.031-13.266-3.983-6.601-6.052-14.727-5.862-23.020v-239.082c0-4.765 0.744-9.482 2.191-13.885 1.446-4.401 3.565-8.402 6.238-11.771 2.673-3.371 5.845-6.043 9.335-7.866 3.492-1.824 7.235-2.761 11.013-2.761h30.72c7.632 0 14.952 3.823 20.35 10.627 5.396 6.804 8.428 16.034 8.428 25.656v239.082c0 4.765-0.744 9.484-2.19 13.887-1.447 4.401-3.567 8.402-6.238 11.771-2.673 3.369-5.845 6.042-9.337 7.866s-7.233 2.761-11.013 2.761h-30.72zM335.449 47.309h-335.449v267.131h335.449v-267.131zM35.31 91.831h264.827v178.087h-264.827v-178.087zM300.138 91.829h35.311v-155.827h-35.311v155.827zM0 91.829h35.31v-155.827h-35.31v155.827zM847.449-63.998h-300.138c-14.048 0-27.52 7.037-37.453 19.56-9.933 12.525-15.514 29.512-15.514 47.223v133.565h406.069v-133.565c0-17.712-5.581-34.698-15.514-47.223s-23.404-19.56-37.451-19.56zM529.655 91.829v-89.044c0-5.905 1.86-11.566 5.171-15.741 3.311-4.176 7.801-6.521 12.484-6.521h300.138c4.681 0 9.173 2.345 12.484 6.521s5.171 9.836 5.171 15.741v89.044h-335.449zM900.419 91.829h-406.069v66.784c0 29.52 9.301 57.83 25.856 78.705 16.555 20.873 39.008 32.599 62.42 32.599h229.518c23.412 0 45.865-11.727 62.421-32.599 16.555-20.874 25.854-49.184 25.854-78.705v-66.784zM529.661 136.351h335.449v22.262c0 17.712-5.581 34.698-15.514 47.222s-23.405 19.56-37.453 19.56h-229.518c-14.048 0-27.518-7.035-37.451-19.56s-15.514-29.51-15.514-47.222v-22.262zM900.419 158.606h-35.309c0 17.712-5.581 34.698-15.514 47.222s-23.405 19.56-37.453 19.56h-229.516c-14.048 0-27.52-7.037-37.453-19.56s-15.514-29.51-15.514-47.222h-35.311v97.28c-0.010 8.103-2.171 15.968-6.139 22.342s-9.513 10.89-15.753 12.829l-13.418 4.007v175.193c0 41.329 13.020 80.963 36.197 110.186s54.612 45.641 87.39 45.641h229.516c32.778 0 64.212-16.418 87.39-45.641s36.197-68.857 36.197-110.186v-175.193l-13.418-4.007c-6.24-1.939-11.785-6.455-15.753-12.829s-6.129-14.239-6.141-22.342v-97.28zM582.627 269.909h229.516c19.101 0 37.687-7.811 52.966-22.26v8.236c-0.049 14.981 3.232 29.681 9.474 42.429s15.193 23.037 25.836 29.696v142.246c0 29.52-9.3 57.83-25.854 78.705s-39.009 32.601-62.421 32.601h-229.516c-23.414 0-45.867-11.727-62.421-32.601s-25.856-49.184-25.856-78.705v-142.246c10.644-6.659 19.596-16.947 25.837-29.696s9.523-27.448 9.474-42.429v-8.236c15.28 14.449 33.865 22.26 52.966 22.26zM123.592 203.127h88.276v-44.522h-88.276v44.522zM225.109 269.909h-114.759l-45.55 200.347h205.858l-45.549-200.347zM136.833 314.431h61.794l25.069 111.304h-111.933l25.070-111.304zM167.731 425.733c-4.508 0.041-9.002 0.638-13.418 1.78-33.092 7.107-63.146 28.662-84.902 60.896-21.755 32.232-33.824 73.088-34.094 115.412v22.26h17.655c32.852 0.217 64.72-14.123 90.041-40.515l6.532-6.455v-10.464c-0.109-27.098 6.225-53.617 18.185-76.133 12.166 22.359 18.747 48.797 18.892 75.911v10.462l6.531 6.456c25.11 26.274 56.704 40.682 89.335 40.736h17.655v-22.26c0.126-43.071-12.041-84.763-34.277-117.46s-53.059-54.216-86.839-60.628c-3.756-0.471-7.542-0.471-11.299 0zM221.578 558.186c-1.297-26.653-7.33-52.596-17.655-75.911 15.587 9.001 29.208 22.636 39.694 39.735s17.526 37.152 20.511 58.436c-15.343-3.367-29.885-11.052-42.549-22.484v0.224zM71.686 580.446c3.194-21.185 10.312-41.12 20.774-58.18s23.972-30.761 39.43-39.991c-10.274 23.342-16.305 49.27-17.655 75.911-12.695 11.271-27.236 18.804-42.549 22.038v0.222zM167.72 427.745l-12.535 15.584c-3.001 4.006-6.003 8.013-8.828 12.242-22.656 34.497-34.305 78.399-32.673 123.139s16.428 87.11 41.5 118.837l12.535 15.584 12.535-15.584c13.281-16.647 23.805-36.456 30.957-58.278 7.154-21.823 10.795-45.22 10.709-68.832v-1.113c-0.101-41.305-11.583-81.282-32.486-113.085-3.178-4.898-6.178-8.905-9.18-12.911l-12.535-15.584zM167.72 647.238c-12.298-22.61-18.879-49.384-18.879-76.8s6.582-54.19 18.879-76.8c12.166 22.357 18.746 48.795 18.891 75.909 0.256 27.742-6.347 54.897-18.891 77.691zM370.755 715.133h35.309v-534.26h-35.309v534.26zM531.413 670.609h-286.013l21.009 289.391h243.995l21.009-289.391zM284.242 715.131h208.331l-14.302 200.347h-179.729l-14.3-200.347z" />
</font>
</defs>
</svg>
